西西论坛

 找回密码
 立即注册
搜索

朱朱宠物 Quest.for.Zhu.2011.3D.1080p.BluRay.x264-GUACAMOLE 5.47GB

[复制链接]
admin 发表于 2021-12-13 10:43:12 | 显示全部楼层 |阅读模式
朱朱宠物 Quest.for.Zhu.2011.3D.1080p.BluRay.x264-GUACAMOLE 5.47GB                                                                                                                                                                                                                                                                                                                                                                                                                                                                                                                                        -->




帖子完整标题:朱朱宠物 Quest.for.Zhu.2011.3D.1080p.BluRay.x264-GUACAMOLE 5.47GB



75011e75cec34a06cdb1dd48e1e862c1.jpg



◎译  名 朱朱宠物
◎片  名 Quest For Zhu
◎年  代 2011
◎产  地 美国
◎类  别 剧情 / 动画
◎语  言 英语
◎IMDb评分  4.3/10 from 163 users
◎IMDb链接  
◎豆瓣评分 4.2/10 from 37 users
◎豆瓣链接 
◎片  长 72分钟
◎导  演 Bob Doucette

◎标  签 动画 | 美国 | 家庭 | 走马观花 | 2011 | ? | 蓝光 | 美国电影

◎简  介  

  这是一个温馨的故事。四个充满活力的小动物(仓鼠)应邀去寻找朱朱宫殿。他们相信他们梦想在那儿会得到实现。被卷到朱朱世界的活泼可爱的点点也加入了探险队伍。在她的冒险旅途中,她朋友般的照顾小胖,囡囡和弯弯。
  当他们到达朱朱宫殿的时候,他们意识到这只是他们伟大旅行的开始。卑鄙的,有控制欲的爬行动物——蛇妖想要阻止他们实现梦想。但是他们同心协力,他们——朱朱英雄拯救了世界!点点意识到她已经拥有了她梦想的一切,而她真正想要的就是回家。
Video
ID                                       : 1
Format                                   : AVC
Format/Info                              : Advanced Video Codec
Format profile                           :
Format settings                          : CABAC / 4 Ref Frames
Format settings, CABAC                   : Yes
Format settings, Reference frames        : 4 frames
Codec ID                                 : V_MPEG4/ISO/AVC
Duration                                 : 1 h 12 min
Bit rate                                 : 9 215 kb/s
Width                                    : 1 920 pixels
Height                                   : 1 080 pixels
Display aspect ratio                     : 16:9
Frame rate mode                          : Constant
Frame rate                               : 23.976 FPS
Color space                              : YUV
Chroma subsampling                       : 4:2:0
Bit depth                                : 8 bits
Scan type                                : Progressive
Bits/(Pixel*Frame)                       : 0.185
Stream size                              : 4.70 GiB (86%)
Writing library                          : x264 core 159 r2991 1771b55
Encoding settings                        : cabac=1 / ref=4 / deblock=1:-1:-1 / analyse=0x3:0x113 / me=umh / subme=8 / psy=1 / psy_rd=1.00:0.00 / mixed_ref=1 / me_range=16 / chroma_me=1 / trellis=2 / 8x8dct=1 / cqm=0 / deadzone=21,11 / fast_pskip=0 / chroma_qp_offset=-2 / threads=24 / lookahead_threads=4 / sliced_threads=0 / nr=0 / decimate=1 / interlaced=0 / bluray_compat=0 / constrained_intra=0 / bframes=5 / b_pyramid=2 / b_adapt=1 / b_bias=0 / direct=3 / weightb=1 / open_gop=0 / weightp=1 / keyint=250 / keyint_min=23 / scenecut=40 / intra_refresh=0 / rc_lookahead=40 / rc=2pass / mbtree=1 / bitrate=9215 / ratetol=1.0 / qcomp=0.60 / qpmin=0 / qpmax=69 / qpstep=4 / cplxblur=20.0 / qblur=0.5 / ip_ratio=1.40 / aq=1:1.00
Language                                 : English
Default                                  : Yes
Forced                                   : No

Audio
ID                                       : 2
Format                                   : DTS
Format/Info                              : Digital Theater Systems
Codec ID                                 : A_DTS
Duration                                 : 1 h 12 min
Bit rate mode                            : Constant
Bit rate                                 : 1 509 kb/s
Channel(s)                               : 6 channels
Channel layout                           : C L R Ls Rs LFE
Sampling rate                            : 48.0 kHz
Frame rate                               : 93.750 FPS (512 SPF)
Bit depth                                : 24 bits
Compression mode                         : Lossy
Stream size                              : 787 MiB (14%)
Language                                 : English
Default                                  : Yes
Forced                                   : No

Menu
00:00:00.000                             : :Kapitel 01
00:05:08.183                             : :Kapitel 02
00:10:06.105                             : :Kapitel 03
00:15:08.866                             : :Kapitel 04
00:19:25.081                             : :Kapitel 05
00:27:14.424                             : :Kapitel 06
00:35:49.773                             : :Kapitel 07
00:41:24.273                             : :Kapitel 08
00:51:00.808                             : :Kapitel 09
01:01:51.958                             : :Kapitel 10
01:06:41.122                             : :Kapitel 11
01:08:33.735                             : :Kapitel 12

ba51b2e0141bd853cd1592e4329d6ba1.jpg




                                                                                                                                                                                                        
                                                                                                                                                                                                                                                                                                                                                                                                                                                                                                                                                                                                                                                                                                                                                                                                                                                        
66b90c8cc92110e82d6e67ed73ec05fc.torrent (27.94 KB, 下载次数: 0)

回复

使用道具 举报

小黑屋|西西论坛

本网站所有资源来自网络,如无意中侵犯了您的权益,请发邮件至 aa63534[email protected],立即清除相关链接

GMT+8, 2022-6-26 21:23 , Processed in 0.132357 second(s), 17 queries .

Powered by Discuz! X3.2

© 2001-2013 Comsenz Inc.

快速回复 返回顶部 返回列表