西西论坛

 找回密码
 立即注册
搜索

贝茨旅馆惊魂记/杀戮鬼屋 The.Bates.Haunting.3D.2012.1080p.BluRay.x264-UNVEiL 6.55 ...

[复制链接]
admin 发表于 2021-12-13 10:43:00 | 显示全部楼层 |阅读模式
贝茨旅馆惊魂记/杀戮鬼屋 The.Bates.Haunting.3D.2012.1080p.BluRay.x264-UNVEiL 6.55GB                                                                                                                                                                                                                                                                                                                                                                                                                                                                                                                                        -->




帖子完整标题:贝茨旅馆惊魂记/杀戮鬼屋 The.Bates.Haunting.3D.2012.1080p.BluRay.x264-UNVEiL 6.55GB



d8628387a108cea3cad8af345026824d.jpg



◎译  名 贝茨旅馆惊魂记 / 杀戮鬼屋 / 杀母鬼屋 / 贝茨困扰
◎片  名 The Bates Haunting
◎年  代 2012
◎产  地 美国
◎类  别 惊悚
◎语  言 英语
◎IMDb评分  3.1/10 from 519 users
◎IMDb链接  
◎豆瓣评分 3.6/10 from 137 users
◎豆瓣链接 
◎片  长 87分钟
◎导  演 Byron Turk
◎主  演 Jean Louise O'Sullivan
       Zachary Fletcher
       Ryan Dunn
       Rocco A. Amato
       Randy Bates
       Ashley Caspermeyer
       Jim Cope
       Ali Crozier
       Karen Eckstein-sarkissian
       Marissa Eldridge
       Kimmy Foraker
       Robert Haag
       Bryan Haas
       Norman Hillbish


◎标  签 美国 | 惊悚 | 恐怖 | 2013 | 血腥 | 美国电影 | 难看 | 这部电影侮辱了恐怖片

◎简  介  

  一年前,女主角在贝茨旅馆举行的表演上看到她最好的朋友不幸被烧死。一年后旅馆重新开业,女主角去那故地重游试图治疗心灵创伤。却是遇上不断有人死亡,这背后到底隐藏着什么不为人知的真相呢?
Video
ID                                       : 1
Format                                   : AVC
Format/Info                              : Advanced Video Codec
Format profile                           :
Format settings                          : CABAC / 4 Ref Frames
Format settings, CABAC                   : Yes
Format settings, Reference frames        : 4 frames
Codec ID                                 : V_MPEG4/ISO/AVC
Duration                                 : 1 h 17 min
Bit rate                                 : 10.7 Mb/s
Width                                    : 1 920 pixels
Height                                   : 1 080 pixels
Display aspect ratio                     : 16:9
Frame rate mode                          : Constant
Frame rate                               : 23.976 FPS
Color space                              : YUV
Chroma subsampling                       : 4:2:0
Bit depth                                : 8 bits
Scan type                                : Progressive
Bits/(Pixel*Frame)                       : 0.214
Stream size                              : 5.61 GiB (86%)
Writing library                          : x264 core 158 r2988 7817004
Encoding settings                        : cabac=1 / ref=4 / deblock=1:-3:-3 / analyse=0x3:0x133 / me=umh / subme=8 / psy=1 / psy_rd=1.00:0.15 / mixed_ref=1 / me_range=16 / chroma_me=1 / trellis=2 / 8x8dct=1 / cqm=0 / deadzone=21,11 / fast_pskip=0 / chroma_qp_offset=-3 / threads=34 / lookahead_threads=5 / sliced_threads=0 / nr=0 / decimate=1 / interlaced=0 / bluray_compat=0 / constrained_intra=0 / bframes=3 / b_pyramid=2 / b_adapt=2 / b_bias=0 / direct=3 / weightb=1 / open_gop=0 / weightp=2 / keyint=240 / keyint_min=24 / scenecut=40 / intra_refresh=0 / rc_lookahead=50 / rc=2pass / mbtree=1 / bitrate=10662 / ratetol=1.0 / qcomp=0.60 / qpmin=0 / qpmax=69 / qpstep=4 / cplxblur=20.0 / qblur=0.5 / ip_ratio=1.40 / aq=1:1.00
Language                                 : English
Default                                  : Yes
Forced                                   : No

Audio
ID                                       : 2
Format                                   : DTS
Format/Info                              : Digital Theater Systems
Codec ID                                 : A_DTS
Duration                                 : 1 h 17 min
Bit rate mode                            : Constant
Bit rate                                 : 1 509 kb/s
Channel(s)                               : 6 channels
Channel layout                           : C L R Ls Rs LFE
Sampling rate                            : 48.0 kHz
Frame rate                               : 93.750 FPS (512 SPF)
Bit depth                                : 24 bits
Compression mode                         : Lossy
Stream size                              : 832 MiB (12%)
Language                                 : English
Default                                  : Yes
Forced                                   : No

Menu
00:00:00.000                             : en:00:00:00.000
00:09:59.974                             : en:00:09:59.974
00:19:59.990                             : en:00:19:59.990
00:29:59.965                             : en:00:29:59.965
00:39:59.981                             : en:00:39:59.981
00:49:59.997                             : en:00:49:59.997
00:59:59.971                             : en:00:59:59.971
01:09:59.987                             : en:01:09:59.987

28b514ba8e148f5bd8fe2c6b4facf723.jpg




                                                                                                                                                                                                        
                                                                                                                                                                                                                                                                                                                                                                                                                                                                                                                                                                                                                                                                                                                                                                                                                                                        
a8a9420761941fbad23bce63ba79ec88.torrent (33.5 KB, 下载次数: 0)

回复

使用道具 举报

小黑屋|西西论坛

本网站所有资源来自网络,如无意中侵犯了您的权益,请发邮件至 [email protected],立即清除相关链接

GMT+8, 2022-1-28 08:42 , Processed in 0.102567 second(s), 17 queries .

Powered by Discuz! X3.2

© 2001-2013 Comsenz Inc.

快速回复 返回顶部 返回列表