西西论坛

 找回密码
 立即注册
搜索

创世纪:失乐园 Genesis.Paradise.Lost.2017.3D.DOCU.1080p.BluRay.x264-REGRET 6.56GB ...

[复制链接]
admin 发表于 2021-12-13 10:42:57 | 显示全部楼层 |阅读模式
创世纪:失乐园 Genesis.Paradise.Lost.2017.3D.DOCU.1080p.BluRay.x264-REGRET 6.56GB                                                                                                                                                                                                                                                                                                                                                                                                                                                                                                                                        -->




帖子完整标题:创世纪:失乐园 Genesis.Paradise.Lost.2017.3D.DOCU.1080p.BluRay.x264-REGRET 6.56GB



21ce1d3c7674b2c917a2bacb1383f47d.jpg



◎译  名 创世纪:失乐园
◎片  名 Genesis: Paradise Lost
◎年  代 2017
◎产  地 美国
◎类  别 纪录片
◎语  言 英语
◎上映日期 2017-11-13(Fathom Events)
◎IMDb评分  5.2/10 from 520 users
◎IMDb链接  
◎豆瓣评分 0/10 from 0 users
◎豆瓣链接 
◎片  长 130分钟
◎导  演 Ralph Strean
◎主  演 Andrew J. Fabich
       Danny Faulkner
       Ray Comfort


◎简  介  

  If there is one part of the Bible that has undergone more scrutiny and abuse than any other, it is the very beginning-GENESIS. Both from within and without the church, assaults on GENESIS continue to question the Creation and ultimately the Creator. So, what exactly happened at the "Creation," at the "Beginning?" Creation Today and Seven Fold Films is proud to announce that for the first time ever, using stunning visual effects and the latest in scientific research, GENESIS will come to life right before your very eyes. We have heard the phrase "In the beginning" many times; now we get to see it on the big screen.
Video
ID                                       : 1
Format                                   : AVC
Format/Info                              : Advanced Video Codec
Format profile                           :
Format settings                          : CABAC / 5 Ref Frames
Format settings, CABAC                   : Yes
Format settings, Reference frames        : 5 frames
Codec ID                                 : V_MPEG4/ISO/AVC
Duration                                 : 1 h 49 min
Bit rate                                 : 8 144 kb/s
Width                                    : 1 920 pixels
Height                                   : 808 pixels
Display aspect ratio                     : 2.40:1
Frame rate mode                          : Constant
Frame rate                               : 23.976 (24000/1001) FPS
Color space                              : YUV
Chroma subsampling                       : 4:2:0
Bit depth                                : 8 bits
Scan type                                : Progressive
Bits/(Pixel*Frame)                       : 0.219
Stream size                              : 6.21 GiB (95%)
Writing library                          : x264 core 157 r2969 d4099dd
Encoding settings                        : cabac=1 / ref=5 / deblock=1:-3:-3 / analyse=0x3:0x133 / me=umh / subme=9 / psy=1 / psy_rd=1.00:0.00 / mixed_ref=1 / me_range=16 / chroma_me=1 / trellis=2 / 8x8dct=1 / cqm=0 / deadzone=21,11 / fast_pskip=0 / chroma_qp_offset=-2 / threads=18 / lookahead_threads=1 / sliced_threads=0 / nr=0 / decimate=1 / interlaced=0 / bluray_compat=0 / constrained_intra=0 / bframes=3 / b_pyramid=2 / b_adapt=1 / b_bias=0 / direct=3 / weightb=1 / open_gop=0 / weightp=2 / keyint=250 / keyint_min=23 / scenecut=40 / intra_refresh=0 / rc_lookahead=40 / rc=2pass / mbtree=1 / bitrate=8144 / ratetol=1.0 / qcomp=0.60 / qpmin=0 / qpmax=69 / qpstep=4 / cplxblur=20.0 / qblur=0.5 / ip_ratio=1.40 / aq=1:1.00
Language                                 : English
Default                                  : Yes
Forced                                   : No

Audio
ID                                       : 2
Format                                   : AC-3
Format/Info                              : Audio Coding 3
Commercial name                          : Dolby Digital
Codec ID                                 : A_AC3
Duration                                 : 1 h 49 min
Bit rate mode                            : Constant
Bit rate                                 : 448 kb/s
Channel(s)                               : 6 channels
Channel layout                           : L R C LFE Ls Rs
Sampling rate                            : 48.0 kHz
Frame rate                               : 31.250 FPS (1536 SPF)
Bit depth                                : 16 bits
Compression mode                         : Lossy
Stream size                              : 350 MiB (5%)
Service kind                             : Complete Main
Default                                  : Yes
Forced                                   : No

Menu
00:00:00.000                             : en:00:00:00.000
00:00:48.090                             : en:00:00:48.090
00:03:35.215                             : en:00:03:35.215
00:05:32.540                             : en:00:05:32.540
00:06:45.405                             : en:00:06:45.405
00:08:57.745                             : en:00:08:57.745
00:09:41.706                             : en:00:09:41.706
00:10:39.388                             : en:00:10:39.388
00:13:03.907                             : en:00:13:03.907
00:19:51.189                             : en:00:19:51.189
00:20:51.666                             : en:00:20:51.666
00:22:46.489                             : en:00:22:46.489
00:24:41.020                             : en:00:24:41.020
00:26:14.405                             : en:00:26:14.405
00:27:17.051                             : en:00:27:17.051
00:27:58.926                             : en:00:27:58.926
00:28:42.678                             : en:00:28:42.678
00:30:38.544                             : en:00:30:38.544
00:34:47.083                             : en:00:34:47.083
00:37:27.285                             : en:00:37:27.285
00:38:23.257                             : en:00:38:23.257
00:39:04.006                             : en:00:39:04.006
00:40:07.111                             : en:00:40:07.111
00:43:04.997                             : en:00:43:04.997
00:44:34.211                             : en:00:44:34.211
00:45:40.319                             : en:00:45:40.319
00:48:45.462                             : en:00:48:45.462
00:50:45.123                             : en:00:50:45.123
00:52:59.924                             : en:00:52:59.924
00:53:42.425                             : en:00:53:42.425
00:56:08.154                             : en:00:56:08.154
00:56:36.807                             : en:00:56:36.807
00:58:36.927                             : en:00:58:36.927
01:01:14.668                             : en:01:01:14.668
01:02:34.289                             : en:01:02:34.289
01:03:45.152                             : en:01:03:45.152
01:05:55.991                             : en:01:05:55.991
01:08:38.319                             : en:01:08:38.319
01:09:19.986                             : en:01:09:19.986
01:10:19.420                             : en:01:10:19.420
01:12:04.817                             : en:01:12:04.817
01:13:28.776                             : en:01:13:28.776
01:16:56.358                             : en:01:16:56.358
01:17:38.108                             : en:01:17:38.108
01:18:19.733                             : en:01:18:19.733
01:21:28.630                             : en:01:21:28.630
01:22:25.520                             : en:01:22:25.520
01:23:05.393                             : en:01:23:05.393
01:23:38.426                             : en:01:23:38.426
01:25:38.963                             : en:01:25:38.963
01:27:08.010                             : en:01:27:08.010
01:32:06.600                             : en:01:32:06.600
01:40:31.354                             : en:01:40:31.354
01:41:50.516                             : en:01:41:50.516
01:43:44.588                             : en:01:43:44.588

1905fb0c542c14856ddfb2792889598b.jpg




                                                                                                                                                                                                        
                                                                                                                                                                                                                                                                                                                                                                                                                                                                                                                                                                                                                                                                                                                                                                                                                                                        
a25fe19e41f82689b13a6021789f682d.torrent (33.46 KB, 下载次数: 0)

回复

使用道具 举报

小黑屋|西西论坛

本网站所有资源来自网络,如无意中侵犯了您的权益,请发邮件至 [email protected],立即清除相关链接

GMT+8, 2022-6-26 22:42 , Processed in 0.129126 second(s), 17 queries .

Powered by Discuz! X3.2

© 2001-2013 Comsenz Inc.

快速回复 返回顶部 返回列表