西西论坛

 找回密码
 立即注册
搜索

精灵旅社/尖叫旅社 Hotel.Transylvania.2012.3D.1080p.BluRay.x264-REGRET 4.45GB ... ...

[复制链接]
admin 发表于 2021-12-13 10:42:53 | 显示全部楼层 |阅读模式
精灵旅社/尖叫旅社 Hotel.Transylvania.2012.3D.1080p.BluRay.x264-REGRET 4.45GB                                                                                                                                                                                                                                                                                                                                                                                                                                                                                                                                        -->




帖子完整标题:精灵旅社/尖叫旅社 Hotel.Transylvania.2012.3D.1080p.BluRay.x264-REGRET 4.45GB



2c20b7b6e0b4324d2badcdf213ac08ac.jpg



◎译  名 精灵旅社 / 尖叫旅社(台) / 怪物旅店 / 怪物旅社 / 怪物酒店 / 特兰西瓦尼亚酒店 / 精灵旅店 / 鬼灵精怪大酒店(港)
◎片  名 Hotel Transylvania
◎年  代 2012
◎产  地 美国
◎类  别 喜剧 / 动画 / 奇幻
◎语  言 英语
◎上映日期 2012-09-08(多伦多电影节) / 2012-09-28(美国) / 2013-11-01(中国大陆)
◎IMDb评分  7.1/10 from 212066 users
◎IMDb链接  
◎豆瓣评分 7.9/10 from 171902 users
◎豆瓣链接 
◎片  长 91分钟
◎导  演 格恩迪·塔塔科夫斯基 Genndy Tartakovsky
◎编  剧 彼得·贝恩汉姆 Peter Baynham / 罗伯特·斯密戈尔 Robert Smigel / 托德·杜伦 Todd Durham / 丹·哈格曼 Dan Hageman / 凯文·哈格曼 Kevin Hageman
◎主  演 亚当·桑德勒 Adam Sandler
       安迪·萨姆伯格 Andy Samberg
       赛琳娜·戈麦斯 Selena Gomez
       凯文·詹姆斯 Kevin James
       法兰·德瑞雪 Fran Drescher
       史蒂夫·布西密 Steve Buscemi
       莫莉·香侬 Molly Shannon
       大卫·斯佩德 David Spade
       席洛·格林 CeeLo Green
       乔恩·拉威茨 Jon Lovitz
       布莱恩·乔治 Brian George
       路奈尔·坎贝尔 Luenell Campell
       布莱恩·斯达克 Brian Stack
       克里斯·帕内尔 Chris Parnell
       杰姬·桑德勒 Jackie Sandler
       莎蒂·桑德勒 Sadie Sandler
       罗伯特·斯密戈尔 Robert Smigel
       罗伯·里格尔 Rob Riggle
       保罗·布里顿 Paul Brittain
       乔尼·所罗门 Jonny Solomon
       吉姆·怀斯 Jim Wise
       克雷格·凯尔曼 Craig Kellman
       布莱恩·麦肯 Brian McCann


◎标  签 动画 | 美国 | 喜剧 | 吸血鬼 | 温情 | 搞笑 | 魔幻 | 2012

◎简  介  

  在阴森恐怖令人谈之色变的幽灵森林深处,耸立着一幢巍峨庄严的古堡。这里的主人正是声名显赫的吸血鬼德古拉(亚当·桑德勒 Adam Sandler 配音)。与传说中不同,德古拉是一个无比温柔的好爸爸,他独自抚养爱女梅菲丝(赛琳娜·戈麦斯 Selena Gomez 配音),为了保护女儿免遭人类的戕害,而特意修建了这座名为尖叫旅社的城堡,普通人类绝对无法接近这里。每年梅菲丝生日之际,科学怪人、狼人、木乃伊、隐形人等怪物都从世界各地赶来为小女孩庆生。在梅菲丝118岁生日之际,她渴望见识外面的世界,早有准备的德古拉设下骗局,却意外将人类少年乔纳森(安迪·萨姆伯格 Andy Samberg 配音)引入古堡。
  乔纳森的到来似乎为怪物世界带来一股全新的气息,德古拉伯爵则不得不费尽心机隐藏他是人类的真相……

◎获奖情况  

  第70届金球奖(2013)
  电影类 最佳动画长片(提名)

  第40届动画安妮奖(2013)
  最佳动画长片(提名)
  最佳导演(提名) 格恩迪·塔塔科夫斯基
  最佳配音(提名) 亚当·桑德勒
  最佳配乐(提名) 马克·马瑟斯鲍夫
  最佳剪辑(提名)
  最佳艺术指导(提名) Marcelo Vignali
  最佳角色设计(提名) 卡洛斯·格兰奇尔 / Carter Goodrich
Video
ID                                       : 1
Format                                   : AVC
Format/Info                              : Advanced Video Codec
Format profile                           :
Format settings                          : CABAC / 4 Ref Frames
Format settings, CABAC                   : Yes
Format settings, Reference frames        : 4 frames
Codec ID                                 : V_MPEG4/ISO/AVC
Duration                                 : 1 h 31 min
Bit rate                                 : 5 326 kb/s
Width                                    : 1 920 pixels
Height                                   : 1 040 pixels
Display aspect ratio                     : 1.85:1
Frame rate mode                          : Constant
Frame rate                               : 23.976 (24000/1001) FPS
Color space                              : YUV
Chroma subsampling                       : 4:2:0
Bit depth                                : 8 bits
Scan type                                : Progressive
Bits/(Pixel*Frame)                       : 0.111
Stream size                              : 3.40 GiB (78%)
Writing library                          : x264 core 157 r2969 d4099dd
Encoding settings                        : cabac=1 / ref=4 / deblock=1:-3:-3 / analyse=0x3:0x133 / me=umh / subme=9 / psy=1 / psy_rd=1.00:0.00 / mixed_ref=1 / me_range=16 / chroma_me=1 / trellis=2 / 8x8dct=1 / cqm=0 / deadzone=21,11 / fast_pskip=0 / chroma_qp_offset=-2 / threads=18 / lookahead_threads=1 / sliced_threads=0 / nr=0 / decimate=1 / interlaced=0 / bluray_compat=0 / constrained_intra=0 / bframes=3 / b_pyramid=2 / b_adapt=1 / b_bias=0 / direct=3 / weightb=1 / open_gop=0 / weightp=2 / keyint=250 / keyint_min=23 / scenecut=40 / intra_refresh=0 / rc_lookahead=40 / rc=2pass / mbtree=1 / bitrate=5326 / ratetol=1.0 / qcomp=0.60 / qpmin=0 / qpmax=69 / qpstep=4 / cplxblur=20.0 / qblur=0.5 / ip_ratio=1.40 / aq=1:1.00
Language                                 : English
Default                                  : Yes
Forced                                   : No

Audio
ID                                       : 2
Format                                   : DTS
Format/Info                              : Digital Theater Systems
Codec ID                                 : A_DTS
Duration                                 : 1 h 31 min
Bit rate mode                            : Constant
Bit rate                                 : 1 509 kb/s
Channel(s)                               : 6 channels
Channel layout                           : C L R Ls Rs LFE
Sampling rate                            : 48.0 kHz
Frame rate                               : 93.750 FPS (512 SPF)
Bit depth                                : 24 bits
Compression mode                         : Lossy
Stream size                              : 988 MiB (22%)
Language                                 : English
Default                                  : Yes
Forced                                   : No

Text
ID                                       : 3
Format                                   : UTF-8
Codec ID                                 : S_TEXT/UTF8
Codec ID/Info                            : UTF-8 Plain Text
Duration                                 : 3 s 212 ms
Bit rate                                 : 109 b/s
Count of elements                        : 1
Stream size                              : 44.0 Bytes (0%)
Title                                    : English forced
Language                                 : English
Default                                  : Yes
Forced                                   : Yes

Menu
00:00:00.000                             : en:00:00:00.000
00:04:49.372                             : en:00:04:49.372
00:10:23.790                             : en:00:10:23.790
00:14:19.275                             : en:00:14:19.275
00:19:25.498                             : en:00:19:25.498
00:25:11.218                             : en:00:25:11.218
00:29:49.413                             : en:00:29:49.413
00:35:50.815                             : en:00:35:50.815
00:41:11.636                             : en:00:41:11.636
00:46:29.537                             : en:00:46:29.537
00:53:50.227                             : en:00:53:50.227
00:57:44.795                             : en:00:57:44.795
01:04:15.268                             : en:01:04:15.268
01:08:48.499                             : en:01:08:48.499
01:15:20.599                             : en:01:15:20.599
01:18:50.643                             : en:01:18:50.643

21b42d959713c3e7b60ded81849b4c40.jpg




                                                                                                                                                                                                        
                                                                                                                                                                                                                                                                                                                                                                                                                                                                                                                                                                                                                                                                                                                                                                                                                                                        
48349043c0a88452a0531c8a08d304d2.torrent (45.38 KB, 下载次数: 0)

回复

使用道具 举报

小黑屋|西西论坛

本网站所有资源来自网络,如无意中侵犯了您的权益,请发邮件至 [email protected],立即清除相关链接

GMT+8, 2022-6-26 22:15 , Processed in 0.109878 second(s), 17 queries .

Powered by Discuz! X3.2

© 2001-2013 Comsenz Inc.

快速回复 返回顶部 返回列表