西西论坛

 找回密码
 立即注册
搜索

结婚计念日/情約時分秒 Long.Story.Short.2021.720p.BluRay.x264-KNiVES 1.86GB ... ...

[复制链接]
admin 发表于 7 天前 | 显示全部楼层 |阅读模式
结婚计念日/情約時分秒 Long.Story.Short.2021.720p.BluRay.x264-KNiVES 1.86GB                                                                                                                                                                                                                                                                                                                                                                                                                                                                                                                                        -->
帖子完整标题:结婚计念日/情約時分秒 Long.Story.Short.2021.720p.BluRay.x264-KNiVES 1.86GB



ed6b2e69a5a2fcf32c0872400649cea0.jpg



◎译  名 结婚计念日/情約時分秒(港)
◎片  名 Long Story Short
◎年  代 2021
◎产  地 澳大利亚
◎类  别 喜剧 / 爱情
◎语  言 英语
◎上映日期 2021-02-19(中国台湾)
◎豆瓣评分 6.8/10 from 448 users
◎豆瓣链接 
◎片  长 90分钟
◎导  演 约什·劳森 Josh Lawson
◎编  剧 约什·劳森 Josh Lawson
◎主  演 拉菲·斯波 Rafe Spall
       钱信伊 Ronny Chieng
       德娜·卡普兰 Dena Kaplan
       诺妮·哈泽赫斯 Noni Hazlehurst
       约什·劳森 Josh Lawson

◎标  签 爱情 | 喜剧 | 澳大利亚 | 家庭 | 2021 | 科幻 | 穿越 | 電影

◎简  介

  如果生活快转,你会活得更精彩吗?
  
  2021年开春最快闪爱情喜剧,让你看完后不仅快乐过一年,还能翻转思想重获新生!
  
  ★继【命运好好玩】后 改变命运的时光旅行超展开★
  
  ★宛如【真爱每一天】般 感动又好笑的人生之旅★
  
  ★【真相急先锋】製作团队携手打造★
  
  泰迪是一个典型喜欢拖拖拉拉的人,就连追求梦想也是。
  
  在他办完婚礼之后,生命送了他一份大礼,也可能是一个诅咒?! 在婚礼的第二天醒来,泰迪发现每隔几分钟,他的人生就会快进一年!并惊觉自己在不知不觉中错过了些什麽…
  
  泰迪必须学会把握当下,否则他可能会失去挚爱、朋友及人生。在一切还没有太迟之前,都还有挽回的馀地。
Video
ID                                       : 1
Format                                   : AVC
Format/Info                              : Advanced Video Codec
Format profile                           :
Format settings                          : CABAC / 8 Ref Frames
Format settings, CABAC                   : Yes
Format settings, Reference frames        : 8 frames
Codec ID                                 : V_MPEG4/ISO/AVC
Duration                                 : 1 h 34 min
Bit rate                                 : 2 164 kb/s
Width                                    : 1 280 pixels
Height                                   : 536 pixels
Display aspect ratio                     : 2.40:1
Frame rate mode                          : Constant
Frame rate                               : 24.000 FPS
Color space                              : YUV
Chroma subsampling                       : 4:2:0
Bit depth                                : 8 bits
Scan type                                : Progressive
Bits/(Pixel*Frame)                       : 0.131
Stream size                              : 1.43 GiB (77%)
Writing library                          : x264 core 164 r3075 66a5bc1
Encoding settings                        : cabac=1 / ref=8 / deblock=1:-3:-3 / analyse=0x3:0x133 / me=umh / subme=9 / psy=1 / psy_rd=1.00:0.00 / mixed_ref=1 / me_range=16 / chroma_me=1 / trellis=2 / 8x8dct=1 / cqm=0 / deadzone=21,11 / fast_pskip=0 / chroma_qp_offset=-2 / threads=17 / lookahead_threads=1 / sliced_threads=0 / nr=0 / decimate=1 / interlaced=0 / bluray_compat=0 / constrained_intra=0 / bframes=3 / b_pyramid=2 / b_adapt=2 / b_bias=0 / direct=3 / weightb=1 / open_gop=0 / weightp=2 / keyint=250 / keyint_min=24 / scenecut=40 / intra_refresh=0 / rc_lookahead=60 / rc=crf / mbtree=1 / crf=17.0 / qcomp=0.60 / qpmin=0 / qpmax=69 / qpstep=4 / ip_ratio=1.40 / aq=1:1.00
Language                                 : English
Default                                  : Yes
Forced                                   : No

Audio
ID                                       : 2
Format                                   : AC-3
Format/Info                              : Audio Coding 3
Commercial name                          : Dolby Digital
Codec ID                                 : A_AC3
Duration                                 : 1 h 34 min
Bit rate mode                            : Constant
Bit rate                                 : 640 kb/s
Channel(s)                               : 6 channels
Channel layout                           : L R C LFE Ls Rs
Sampling rate                            : 48.0 kHz
Frame rate                               : 31.250 FPS (1536 SPF)
Compression mode                         : Lossy
Stream size                              : 432 MiB (23%)
Language                                 : English
Service kind                             : Complete Main
Default                                  : Yes
Forced                                   : No

Text #1
ID                                       : 3
Format                                   : PGS
Muxing mode                              : zlib
Codec ID                                 : S_HDMV/PGS
Codec ID/Info                            : Picture based subtitle format used on BDs/HD-DVDs
Duration                                 : 1 h 33 min
Bit rate                                 : 42.5 kb/s
Count of elements                        : 2884
Stream size                              : 28.4 MiB (1%)
Language                                 : German
Default                                  : No
Forced                                   : No

Text #2
ID                                       : 4
Format                                   : PGS
Muxing mode                              : zlib
Codec ID                                 : S_HDMV/PGS
Codec ID/Info                            : Picture based subtitle format used on BDs/HD-DVDs
Duration                                 : 1 h 30 min
Bit rate                                 : 50 b/s
Count of elements                        : 6
Stream size                              : 33.3 KiB (0%)
Language                                 : German
Default                                  : No
Forced                                   : No

e3b2fde88b53ae6d28355bc3fd933de5.jpg





                                                                                                                                                                                                        
                                                                                                                                                                                                                                                                                                                                                                                                                                                                                                                                                                                                                                                                                                                                                                                                                                                        
5fc1a4936a9749f93505879fc0bfb632.torrent (19.36 KB, 下载次数: 0)

回复

使用道具 举报

小黑屋|西西论坛

本网站所有资源来自网络,如无意中侵犯了您的权益,请发邮件至 [email protected],立即清除相关链接

GMT+8, 2021-12-3 15:28 , Processed in 0.102829 second(s), 17 queries .

Powered by Discuz! X3.2

© 2001-2013 Comsenz Inc.

快速回复 返回顶部 返回列表