西西论坛

 找回密码
 立即注册
搜索

南北少林 Martial.Arts.of.Shaolin.1986.1080p.BluRay.x264-GUACAMOLE 6.12GB

[复制链接]
admin 发表于 3 天前 | 显示全部楼层 |阅读模式
南北少林 Martial.Arts.of.Shaolin.1986.1080p.BluRay.x264-GUACAMOLE 6.12GB                                                                                                                                                                                                                                                                                                                                                                                                                                                                                                                                        -->
帖子完整标题:南北少林 Martial.Arts.of.Shaolin.1986.1080p.BluRay.x264-GUACAMOLE 6.12GB



9ccca610e29b6b766c705d82ad9c70b8.jpg



◎译  名 Martial Arts of Shaolin
◎片  名 南北少林
◎年  代 1986
◎产  地 中国大陆,中国香港
◎类  别 剧情 / 动作 / 武侠 / 古装
◎语  言 汉语普通话
◎上映日期 1986-02-01
◎豆瓣评分 7.1/10 from 9268 users
◎豆瓣链接 
◎片  长 90分钟
◎导  演 刘家良 Kar-Leung Lau
◎编  剧 施扬平 Yeung-Ping Sze
◎主  演 李连杰 Jet Li
       胡坚强 Jianqiang Hu
       黄秋燕 Chau-Yin Wong
       计春华 Chunhua Ji
       刘怀良 Huailiang Liu
       麦伟章 Wai Cheung Mak
       潘清福 Qingfu Pan
       孙建魁 Jiankui Sun
       王星瀚 Xinghan Wang
       王抒丹 Shudan Wang
       于承惠 Chenghui Yu
       于海 Hai Yu
       袁苑 Yuan Yuan
       张建文 Jianwen Zhang
       关顺田 Shuntian Guan
       张建民 Jianmin Zhang
       廖静妮 Jingni Liao
       冯雪瑞 Xuerui Feng

◎标  签 李连杰 | 动作 | 香港 | 武侠 | 功夫 | 香港电影 | 刘家良 | 1986

◎简  介

  北少林棍僧智明(李连杰 饰)为报父母之仇,日日苦练功夫,他天性纯良聪明,深得师父器重。这天,智明收下的一班顽童“徒弟”向他报信,声称退隐多年的赫索王爷再度出山摄政,智明听闻杀父仇人消息怒发冲冠,随即下山为赫索祝寿伺机行刺。与此同时,和智明一样与赫索有血海深仇的莆田南少林俗家弟子司马燕(黄秋燕 饰)亦北上刺杀赫索,南少林派出另一俗家弟子赵威(胡坚强 饰)暗中接应与保护司马燕。在赫索的寿诞庆典上,智明、司马燕与赵威等人联手行刺,却仍然功亏一篑,三人在重重围堵中逃出,而路上,智明发现司马燕居然是他指腹为婚的未婚妻,身为出家人的智明无法迎娶司马燕,三人计划再度行刺赫索……

◎获奖情况

  第6届香港电影金像奖 ?(1987)
  最佳动作设计(提名)
Video
ID                                       : 1
Format                                   : AVC
Format/Info                              : Advanced Video Codec
Format profile                           :
Format settings                          : CABAC / 5 Ref Frames
Format settings, CABAC                   : Yes
Format settings, Reference frames        : 5 frames
Codec ID                                 : V_MPEG4/ISO/AVC
Duration                                 : 1 h 33 min
Bit rate                                 : 8 549 kb/s
Width                                    : 1 920 pixels
Height                                   : 816 pixels
Display aspect ratio                     : 2.35:1
Frame rate mode                          : Constant
Frame rate                               : 24.000 FPS
Color space                              : YUV
Chroma subsampling                       : 4:2:0
Bit depth                                : 8 bits
Scan type                                : Progressive
Bits/(Pixel*Frame)                       : 0.227
Stream size                              : 5.61 GiB (92%)
Writing library                          : x264 core 164 r3075 66a5bc1
Encoding settings                        : cabac=1 / ref=5 / deblock=1:-3:-3 / analyse=0x3:0x133 / me=umh / subme=9 / psy=1 / psy_rd=1.00:0.00 / mixed_ref=1 / me_range=16 / chroma_me=1 / trellis=2 / 8x8dct=1 / cqm=0 / deadzone=21,11 / fast_pskip=0 / chroma_qp_offset=-2 / threads=24 / lookahead_threads=2 / sliced_threads=0 / nr=0 / decimate=1 / interlaced=0 / bluray_compat=0 / constrained_intra=0 / bframes=3 / b_pyramid=2 / b_adapt=2 / b_bias=0 / direct=3 / weightb=1 / open_gop=0 / weightp=2 / keyint=250 / keyint_min=24 / scenecut=40 / intra_refresh=0 / rc_lookahead=60 / rc=crf / mbtree=1 / crf=17.0 / qcomp=0.60 / qpmin=0 / qpmax=69 / qpstep=4 / ip_ratio=1.40 / aq=3:0.60
Default                                  : Yes
Forced                                   : No
Color range                              : Limited
Matrix coefficients                      : BT.709

Audio #1
ID                                       : 2
Format                                   : AC-3
Format/Info                              : Audio Coding 3
Commercial name                          : Dolby Digital
Codec ID                                 : A_AC3
Duration                                 : 1 h 33 min
Bit rate mode                            : Constant
Bit rate                                 : 384 kb/s
Channel(s)                               : 2 channels
Channel layout                           : L R
Sampling rate                            : 48.0 kHz
Frame rate                               : 31.250 FPS (1536 SPF)
Compression mode                         : Lossy
Stream size                              : 258 MiB (4%)
Language                                 : Chinese
Service kind                             : Complete Main
Default                                  : Yes
Forced                                   : No

Audio #2
ID                                       : 3
Format                                   : AC-3
Format/Info                              : Audio Coding 3
Commercial name                          : Dolby Digital
Codec ID                                 : A_AC3
Duration                                 : 1 h 33 min
Bit rate mode                            : Constant
Bit rate                                 : 384 kb/s
Channel(s)                               : 2 channels
Channel layout                           : L R
Sampling rate                            : 48.0 kHz
Frame rate                               : 31.250 FPS (1536 SPF)
Compression mode                         : Lossy
Stream size                              : 258 MiB (4%)
Language                                 : English
Service kind                             : Complete Main
Default                                  : No
Forced                                   : No

Text #1
ID                                       : 4
Format                                   : UTF-8
Codec ID                                 : S_TEXT/UTF8
Codec ID/Info                            : UTF-8 Plain Text
Duration                                 : 1 h 31 min
Bit rate                                 : 29 b/s
Count of elements                        : 574
Stream size                              : 20.2 KiB (0%)
Language                                 : English
Default                                  : Yes
Forced                                   : Yes

Text #2
ID                                       : 5
Format                                   : PGS
Muxing mode                              : zlib
Codec ID                                 : S_HDMV/PGS
Codec ID/Info                            : Picture based subtitle format used on BDs/HD-DVDs
Duration                                 : 1 h 31 min
Bit rate                                 : 20.5 kb/s
Count of elements                        : 1152
Stream size                              : 13.5 MiB (0%)
Language                                 : English
Default                                  : No
Forced                                   : No

Text #3
ID                                       : 6
Format                                   : PGS
Muxing mode                              : zlib
Codec ID                                 : S_HDMV/PGS
Codec ID/Info                            : Picture based subtitle format used on BDs/HD-DVDs
Duration                                 : 1 h 31 min
Bit rate                                 : 23.4 kb/s
Count of elements                        : 1178
Stream size                              : 15.4 MiB (0%)
Language                                 : German
Default                                  : No
Forced                                   : No

Menu
00:00:00.000                             : en:00:00:00.000
00:10:33.208                             : en:00:10:33.208
00:16:24.583                             : en:00:16:24.583
00:25:28.792                             : en:00:25:28.792
00:33:36.750                             : en:00:33:36.750
00:40:02.417                             : en:00:40:02.417
00:48:08.625                             : en:00:48:08.625
00:56:18.167                             : en:00:56:18.167
01:05:26.167                             : en:01:05:26.167
01:12:02.042                             : en:01:12:02.042
01:17:41.500                             : en:01:17:41.500
01:27:56.000                             : en:01:27:56.000





                                                                                                                                                                                                        
                                                                                                                                                                                                                                                                                                                                                                                                                                                                                                                                                                                                                                                                                                                                                                                                                                                        
1d88861cf1470af627501c2cc5487635.torrent (16.02 KB, 下载次数: 0)

回复

使用道具 举报

小黑屋|西西论坛

本网站所有资源来自网络,如无意中侵犯了您的权益,请发邮件至 [email protected],立即清除相关链接

GMT+8, 2021-11-28 10:30 , Processed in 0.134634 second(s), 17 queries .

Powered by Discuz! X3.2

© 2001-2013 Comsenz Inc.

快速回复 返回顶部 返回列表