西西论坛

 找回密码
 立即注册
搜索

春光满古城 A.Funny.Thing.Happened.on.the.Way.to.the.Forum.1966.iNTERNAL.1080p.Bl ...

[复制链接]
admin 发表于 3 天前 | 显示全部楼层 |阅读模式
春光满古城 A.Funny.Thing.Happened.on.the.Way.to.the.Forum.1966.iNTERNAL.1080p.BluRay.                                                                                                                                                                                                                                                                                                                                                                                                                                                                                                                                        -->
帖子完整标题:春光满古城 A.Funny.Thing.Happened.on.the.Way.to.the.Forum.1966.iNTERNAL.1080p.BluRay.x264-PEGASUS 8.01GB



7cd03e56e566b3d51c9c7d286dfe5342.jpg



◎译  名 春光满古城
◎片  名 A Funny Thing Happened on the Way to the Forum
◎年  代 1966
◎产  地 英国,美国
◎类  别 喜剧 / 歌舞
◎语  言 英语
◎上映日期 1966-10-16(英国)
◎豆瓣评分 7.1/10 from 1108 users
◎豆瓣链接 
◎片  长 99分钟
◎导  演 理查德·莱斯特 Richard Lester
◎编  剧 梅尔文·弗兰克 Melvin Frank / 迈克尔·珀特维 Michael Pertwee / Burt Shevelove Burt Shevelove / 拉里·吉尔巴特 Larry Gelbart / 史蒂芬·桑德海姆 Stephen Sondheim
◎主  演 泽罗·莫斯苔 Zero Mostel
       菲尔·西尔沃斯 Phil Silvers
       巴斯特·基顿 Buster Keaton
       迈克尔·克劳福德 Michael Crawford
       杰克·吉尔福德 Jack Gilford
       安妮特·安德烈 Annette Andre
       迈克尔·霍尔德恩 Michael Hordern
       罗伊·金尼尔 Roy Kinnear
       阿尔菲·巴斯 Alfie Bass
       约翰·布鲁塞尔 John Bluthal
       帕梅拉·布朗 Pamela Brown
       帕特里夏·杰塞尔 Patricia Jessel
       比阿特丽克斯·莱曼 Beatrix Lehmann
       弗兰克·桑顿 Frank Thornton
       彼得·巴特沃思 Peter Butterworth
       约翰·贝内特 John Bennett
       安德鲁·福尔兹 Andrew Faulds
       Jennifer Baker Jennifer Baker
       Susan Baker Susan Baker
       Ronnie Brody Ronnie Brody
       弗兰克·埃利奥特 Frank Elliott
       Helen Funai Helen Funai
       比尔·克尔 Bill Kerr
       杰克·梅 Jack May
       乔恩·帕特维 Jon Pertwee
       Ricardo Palacios Ricardo Palacios
       英格丽德·皮特 Ingrid Pitt

◎标  签 喜剧 | 美国 | 1960s | 音乐剧 | 歌舞 | 英国 | 巴斯特·基顿 | Buster_Keaton

◎简  介

  英国名导演理查德.莱斯特应邀赴好莱坞拍摄的第一部电影,改编自同名百老汇歌舞喜剧,并由原剧男主角胖子谐星泽罗.莫斯特尔饰演主人翁——一名古罗马的奴隶。他为了争取自由,先得帮主人追求到一名高级妓女,于是使尽各种手段,偷诈拐骗无所不为,整个罗马城的人几乎都被他逼疯了。整部影片拍得相当热闹有趣,演员也有逗笑演出。难得的是默片时代喜剧巨匠巴斯特.基顿也在片中客串一角,饰演女主角安妮特.安德烈的父亲。

◎获奖情况

  第39届奥斯卡金像奖 ?(1967)
  最佳改编配乐 肯·索恩
Video
ID                                       : 1
Format                                   : AVC
Format/Info                              : Advanced Video Codec
Format profile                           :
Format settings                          : CABAC / 4 Ref Frames
Format settings, CABAC                   : Yes
Format settings, Reference frames        : 4 frames
Codec ID                                 : V_MPEG4/ISO/AVC
Duration                                 : 1 h 37 min
Bit rate                                 : 11.2 Mb/s
Width                                    : 1 918 pixels
Height                                   : 1 040 pixels
Display aspect ratio                     : 1.85:1
Frame rate mode                          : Constant
Frame rate                               : 23.976 (24000/1001/189150) FPS
Color space                              : YUV
Chroma subsampling                       : 4:2:0
Bit depth                                : 8 bits
Scan type                                : Progressive
Bits/(Pixel*Frame)                       : 0.233
Stream size                              : 7.59 GiB (95%)
Writing library                          : x264 core 163 r3059 b684ebe0
Encoding settings                        : cabac=1 / ref=4 / deblock=1:-3:-3 / analyse=0x3:0x133 / me=umh / subme=10 / psy=1 / psy_rd=1.00:0.00 / mixed_ref=1 / me_range=32 / chroma_me=1 / trellis=2 / 8x8dct=1 / cqm=0 / deadzone=21,11 / fast_pskip=0 / chroma_qp_offset=-2 / threads=32 / lookahead_threads=8 / sliced_threads=0 / nr=0 / decimate=0 / interlaced=0 / bluray_compat=0 / constrained_intra=0 / bframes=16 / b_pyramid=2 / b_adapt=2 / b_bias=0 / direct=3 / weightb=1 / open_gop=0 / weightp=2 / keyint=240 / keyint_min=24 / scenecut=40 / intra_refresh=0 / rc_lookahead=60 / rc=crf / mbtree=0 / crf=21.0 / qcomp=0.65 / qpmin=0 / qpmax=69 / qpstep=4 / vbv_maxrate=62500 / vbv_bufsize=78125 / crf_max=0.0 / nal_hrd=none / filler=0 / ip_ratio=1.40 / pb_ratio=1.30 / aq=2:0.80
Default                                  : Yes
Forced                                   : No
Color range                              : Limited
Color primaries                          : BT.709
Transfer characteristics                 : BT.709
Matrix coefficients                      : BT.709

Audio
ID                                       : 2
Format                                   : FLAC
Format/Info                              : Free Lossless Audio Codec
Codec ID                                 : A_FLAC
Duration                                 : 1 h 37 min
Bit rate mode                            : Variable
Bit rate                                 : 614 kb/s
Channel(s)                               : 2 channels
Channel layout                           : L R
Sampling rate                            : 48.0 kHz
Frame rate                               : 11.719 FPS (4096 SPF)
Bit depth                                : 16 bits
Compression mode                         : Lossless
Delay relative to video                  : 11 s 11 ms
Stream size                              : 427 MiB (5%)
Writing library                          : libFLAC 1.2.1 (UTC 2007-09-17)
Language                                 : English
Default                                  : Yes
Forced                                   : No

Text
ID                                       : 3
Format                                   : PGS
Muxing mode                              : zlib
Codec ID                                 : S_HDMV/PGS
Codec ID/Info                            : Picture based subtitle format used on BDs/HD-DVDs
Duration                                 : 1 h 34 min
Bit rate                                 : 46.2 kb/s
Count of elements                        : 3094
Stream size                              : 31.1 MiB (0%)
Language                                 : English
Default                                  : No
Forced                                   : No

Menu
00:00:11.011                             : :Chapter 1
00:11:57.800                             : :Chapter 2
00:25:27.443                             : :Chapter 3
00:36:03.286                             : :Chapter 4
00:48:45.381                             : :Chapter 5
00:57:35.702                             : :Chapter 6
01:12:00.775                             : :Chapter 7
01:23:23.582                             : :Chapter 8

19ebd331a0e0af9a611c851922e50b95.jpg





                                                                                                                                                                                                        
                                                                                                                                                                                                                                                                                                                                                                                                                                                                                                                                                                                                                                                                                                                                                                                                                                                        
ec52def1733c968cbb11c123d105e583.torrent (20.87 KB, 下载次数: 0)

回复

使用道具 举报

小黑屋|西西论坛

本网站所有资源来自网络,如无意中侵犯了您的权益,请发邮件至 [email protected],立即清除相关链接

GMT+8, 2021-11-28 09:55 , Processed in 0.112120 second(s), 17 queries .

Powered by Discuz! X3.2

© 2001-2013 Comsenz Inc.

快速回复 返回顶部 返回列表