西西论坛

 找回密码
 立即注册
搜索

猎杀时刻 Apex.2021.1080p.BluRay.x264-UNVEiL 8.44GB

[复制链接]
admin 发表于 4 天前 | 显示全部楼层 |阅读模式
猎杀时刻 Apex.2021.1080p.BluRay.x264-UNVEiL 8.44GB                                                                                                                                                                                                                                                                                                                                                                                                                                                                                                                                        -->
帖子完整标题:猎杀时刻 Apex.2021.1080p.BluRay.x264-UNVEiL 8.44GB



e2d15620dfede914c47f9232988a254a.jpg



◎译  名 猎杀时刻
◎片  名 Apex
◎年  代 2021
◎产  地 美国
◎类  别 动作 / 惊悚
◎语  言 英语
◎上映日期 2021-11-12(美国)
◎豆瓣评分 3.2/10 from 67 users
◎豆瓣链接 
◎片  长 94分钟
◎编  剧 科里·拉奇 Corey Large
◎主  演 布鲁斯·威利斯 Bruce Willis
       尼尔·麦克唐纳 Neal McDonough
       特雷弗·格雷茨基 Trevor Gretzky
       科里·拉奇 Corey Large

◎标  签 2021 | 美国 | 布鲁斯·威利斯 | 动作 | 科幻 | 美国电影 | 犯罪 | 小成本

◎简  介

  Five elite hunters pay to hunt down a man on a deserted island, only to find themselves becoming the prey.
Video
ID                                       : 1
Format                                   : AVC
Format/Info                              : Advanced Video Codec
Format profile                           :
Format settings                          : CABAC / 5 Ref Frames
Format settings, CABAC                   : Yes
Format settings, Reference frames        : 5 frames
Codec ID                                 : V_MPEG4/ISO/AVC
Duration                                 : 1 h 33 min
Bit rate                                 : 9 091 kb/s
Width                                    : 1 920 pixels
Height                                   : 804 pixels
Display aspect ratio                     : 2.40:1
Frame rate mode                          : Constant
Frame rate                               : 23.976 (24000/1001/189150) FPS
Color space                              : YUV
Chroma subsampling                       : 4:2:0
Bit depth                                : 8 bits
Scan type                                : Progressive
Bits/(Pixel*Frame)                       : 0.246
Stream size                              : 5.94 GiB (70%)
Writing library                          : x264 core 164 r3075 66a5bc1
Encoding settings                        : cabac=1 / ref=5 / deblock=1:-3:-3 / analyse=0x3:0x133 / me=umh / subme=9 / psy=1 / psy_rd=1.00:0.00 / mixed_ref=1 / me_range=16 / chroma_me=1 / trellis=2 / 8x8dct=1 / cqm=0 / deadzone=21,11 / fast_pskip=0 / chroma_qp_offset=-2 / threads=24 / lookahead_threads=2 / sliced_threads=0 / nr=0 / decimate=1 / interlaced=0 / bluray_compat=0 / constrained_intra=0 / bframes=3 / b_pyramid=2 / b_adapt=2 / b_bias=0 / direct=3 / weightb=1 / open_gop=0 / weightp=2 / keyint=250 / keyint_min=23 / scenecut=40 / intra_refresh=0 / rc_lookahead=60 / rc=crf / mbtree=1 / crf=17.0 / qcomp=0.60 / qpmin=0 / qpmax=69 / qpstep=4 / ip_ratio=1.40 / aq=1:1.00
Language                                 : English
Default                                  : Yes
Forced                                   : No

Audio
ID                                       : 2
Format                                   : DTS XLL
Format/Info                              : Digital Theater Systems
Commercial name                          : DTS-HD Master Audio
Codec ID                                 : A_DTS
Duration                                 : 1 h 33 min
Bit rate mode                            : Variable
Bit rate                                 : 3 804 kb/s
Channel(s)                               : 6 channels
Channel layout                           : C L R Ls Rs LFE
Sampling rate                            : 48.0 kHz
Frame rate                               : 93.750 FPS (512 SPF)
Bit depth                                : 24 bits
Compression mode                         : Lossless
Stream size                              : 2.49 GiB (29%)
Language                                 : English
Default                                  : Yes
Forced                                   : No

Text #1
ID                                       : 3
Format                                   : PGS
Muxing mode                              : zlib
Codec ID                                 : S_HDMV/PGS
Codec ID/Info                            : Picture based subtitle format used on BDs/HD-DVDs
Duration                                 : 1 h 32 min
Bit rate                                 : 41.6 kb/s
Count of elements                        : 2974
Stream size                              : 27.4 MiB (0%)
Language                                 : English
Default                                  : No
Forced                                   : No

Text #2
ID                                       : 4
Format                                   : PGS
Muxing mode                              : zlib
Codec ID                                 : S_HDMV/PGS
Codec ID/Info                            : Picture based subtitle format used on BDs/HD-DVDs
Duration                                 : 1 h 15 min
Bit rate                                 : 243 b/s
Count of elements                        : 12
Stream size                              : 135 KiB (0%)
Language                                 : German
Default                                  : No
Forced                                   : No

Menu
00:00:00.000                             : en:Chapter 01
00:08:58.788                             : en:Chapter 02
00:14:19.650                             : en:Chapter 03
00:21:46.430                             : en:Chapter 04
00:27:54.923                             : en:Chapter 05
00:35:23.038                             : en:Chapter 06
00:43:24.644                             : en:Chapter 07
00:52:23.265                             : en:Chapter 08
00:59:42.996                             : en:Chapter 09
01:12:06.614                             : en:Chapter 10
01:21:47.528                             : en:Chapter 11
01:31:29.067                             : en:Chapter 12

4dc8485d2edcb6dcd21c0ee84d22b7ae.jpg





                                                                                                                                                                                                        
                                                                                                                                                                                                                                                                                                                                                                                                                                                                                                                                                                                                                                                                                                                                                                                                                                                        
32db746b3a628479aef0d0f3e82ff57e.torrent (21.81 KB, 下载次数: 0)

回复

使用道具 举报

小黑屋|西西论坛

本网站所有资源来自网络,如无意中侵犯了您的权益,请发邮件至 [email protected],立即清除相关链接

GMT+8, 2021-11-28 10:30 , Processed in 0.166304 second(s), 17 queries .

Powered by Discuz! X3.2

© 2001-2013 Comsenz Inc.

快速回复 返回顶部 返回列表