西西论坛

 找回密码
 立即注册
搜索

怒火 Raging.Fire.2021.CHINESE.1080p.BluRay.x264.DTS-HD.MA.7.1-NOGRP 17.93GB

[复制链接]
admin 发表于 4 天前 | 显示全部楼层 |阅读模式
怒火 Raging.Fire.2021.CHINESE.1080p.BluRay.x264.DTS-HD.MA.7.1-NOGRP 17.93GB                                                                                                                                                                                                                                                                                                                                                                                                                                                                                                                                        -->
帖子完整标题:怒火 Raging.Fire.2021.CHINESE.1080p.BluRay.x264.DTS-HD.MA.7.1-NOGRP 17.93GB



8d05236a8ec513dae0ff78fb07a0d3c1.jpg



◎译  名 怒火·重案/Crossfire/Raging Fire/怒火战/怒火重案/火拼
◎片  名 怒火
◎年  代 2021
◎产  地 中国香港,中国大陆
◎类  别 动作 / 犯罪
◎语  言 粤语,汉语普通话
◎上映日期 2021-07-30(中国大陆) / 2021-08-19(中国香港)
◎豆瓣评分 7.2/10 from 354042 users
◎豆瓣链接 
◎片  长 128分钟
◎导  演 陈木胜 Benny Chan
◎编  剧 陈木胜 Benny Chan / 凌伟骏 Ryan Wai-Chun Ling / 唐耀良 Yiu-leung Tong
◎主  演 甄子丹 Donnie Yen
       谢霆锋 Nicholas Tse
       秦岚 Lan Qin
       谭耀文 Patrick Tam
       黄德斌 Tak-bun Wong
       吴浩康 Deep Ng
       何珮瑜 Jeana Ho
       杨天宇 Angus Yeung
       汤君慈 Bruce Tong
       麦亨利 Henry Mai
       喻亢 Kang Yu
       张文杰 Man Kit Cheung
       胡子彤 Tony Tsz-Tung Wu
       吕良伟 Ray Lui
       任达华 Simon Yam
       袁富华 Fu-wah Yuen
       林国斌 Ben Lam
       卢惠光 Ken Lo
       陈家乐 Carlos Chan
       张国强 Kwok Keung Cheung
       汤怡 Kathy Tong
       高战 Chris Collins
       辛格·哈提汗·比托 Singh Hartihan Bitto
       克里斯·柯林斯 K.C. Collins
       李子明 Chi Ming Lee
       谭伟权 Gary Tam
       吴瑞庭 Shui Ting Ng
       蒲茗蓝 Ming Nam Po
       吴凤鸣 Ng Fung Ming
       陈振华 Ricky Chan
       陈浩 Hao Chen
       何俊轩 Ho Chun Hin
       谭干聪 Kon Chung Tam
       张颖富
       郑咏谦 Moses Wing-Him Cheng
       骆振伟 Thor Lok
       梁皓楷 Jerry Leung
       梁展峰 Chin-fung Leung
       李煌生 Wong-seng Lee
       陈彼得 Peter Chan
       狄哲龙 Dhillon Harjit Singh
       叶朗钲 Mike Yip
       林家熙 Lam ka hel
       区轩玮 John Au
       许博文 Johnny Hui
       吴云甫 Owen Ng
       罗孝勇 Sheldon Lo
       范仲恒 Chung Hang Fan
       谭坤伦 Alan Tam
       何伟业 Wai-Yip Ho
       林靖文 Sophia Lam
       蒙为亮 Mung Wai Leong
       杜港 Kong To
       高俊文 Chun-Man Ko
       郭政鸿 Jing-hung Kwok
       麦长青 Cheung-Ching Mak
       周祉君 Aaron Chow
       梁雍婷 Rachel Leung
       邹凯光 Matt Chow
       火火 Fire Lee Ka Wing
       郭锋 Fung Kwok
       罗浩铭 Ken Ho-Ming Law
       李凯贤 Brian Lee

◎标  签 警匪 | 中国香港 | 动作 | 犯罪 | 枪战 | 2021 | 悬疑 | 中国大陆

◎简  介

  重案组布网围剿国际毒枭,突然杀出一组蒙面悍匪“黑吃黑”,更冷血屠杀众警察。重案组督察张崇邦(甄子丹 饰)亲睹战友被杀,深入追查发现,悍匪首领竟是昔日战友邱刚敖(谢霆锋 饰)。原来敖也曾是警队明日之星,而将敖推向罪恶深渊的人,却正是邦。宿命令二人再次纠缠,一切恩怨张崇邦如何作出了断……
Video
ID                                       : 1
Format                                   : AVC
Format/Info                              : Advanced Video Codec
Format profile                           :
Format settings                          : CABAC / 5 Ref Frames
Format settings, CABAC                   : Yes
Format settings, Reference frames        : 5 frames
Codec ID                                 : V_MPEG4/ISO/AVC
Duration                                 : 2 h 5 min
Bit rate                                 : 10 000 kb/s
Width                                    : 1 920 pixels
Height                                   : 804 pixels
Display aspect ratio                     : 2.40:1
Frame rate mode                          : Constant
Frame rate                               : 24.000 FPS
Color space                              : YUV
Chroma subsampling                       : 4:2:0
Bit depth                                : 8 bits
Scan type                                : Progressive
Bits/(Pixel*Frame)                       : 0.270
Stream size                              : 8.79 GiB (49%)
Writing library                          : x264 core 133 r2334 a3ac64b
Encoding settings                        : cabac=1 / ref=5 / deblock=1:-3:-3 / analyse=0x3:0x113 / me=umh / subme=11 / psy=1 / psy_rd=1.00:0.00 / mixed_ref=1 / me_range=64 / chroma_me=1 / trellis=2 / 8x8dct=1 / cqm=0 / deadzone=21,11 / fast_pskip=0 / chroma_qp_offset=-4 / threads=36 / lookahead_threads=6 / sliced_threads=0 / nr=0 / decimate=0 / interlaced=0 / bluray_compat=0 / constrained_intra=0 / bframes=8 / b_pyramid=2 / b_adapt=2 / b_bias=0 / direct=3 / weightb=1 / open_gop=0 / weightp=2 / keyint=250 / keyint_min=24 / scenecut=40 / intra_refresh=0 / rc=2pass / mbtree=0 / bitrate=10000 / ratetol=1.0 / qcomp=0.60 / qpmin=0 / qpmax=69 / qpstep=4 / cplxblur=20.0 / qblur=0.5 / ip_ratio=1.40 / pb_ratio=1.30 / aq=1:0.80
Language                                 : English
Default                                  : Yes
Forced                                   : No

Audio #1
ID                                       : 2
Format                                   : DTS XLL
Format/Info                              : Digital Theater Systems
Commercial name                          : DTS-HD Master Audio
Codec ID                                 : A_DTS
Duration                                 : 2 h 5 min
Bit rate mode                            : Variable
Bit rate                                 : 5 145 kb/s
Channel(s)                               : 8 channels
Channel layout                           : C L R LFE Lb Rb Lss Rss
Sampling rate                            : 96.0 kHz
Frame rate                               : 187.500 FPS (512 SPF)
Bit depth                                : 24 bits
Compression mode                         : Lossless
Stream size                              : 4.52 GiB (25%)
Title                                    : DTS-HD MA 7.1
Language                                 : Chinese
Default                                  : No
Forced                                   : No

Audio #2
ID                                       : 3
Format                                   : DTS XLL
Format/Info                              : Digital Theater Systems
Commercial name                          : DTS-HD Master Audio
Codec ID                                 : A_DTS
Duration                                 : 2 h 5 min
Bit rate mode                            : Variable
Bit rate                                 : 5 145 kb/s
Channel(s)                               : 8 channels
Channel layout                           : C L R LFE Lb Rb Lss Rss
Sampling rate                            : 96.0 kHz
Frame rate                               : 187.500 FPS (512 SPF)
Bit depth                                : 24 bits
Compression mode                         : Lossless
Stream size                              : 4.52 GiB (25%)
Title                                    : DTS-HD MA 7.1
Language                                 : Chinese
Default                                  : No
Forced                                   : No

Text #1
ID                                       : 4
Format                                   : UTF-8
Codec ID                                 : S_TEXT/UTF8
Codec ID/Info                            : UTF-8 Plain Text
Duration                                 : 1 h 56 min
Bit rate                                 : 39 b/s
Count of elements                        : 1256
Stream size                              : 33.3 KiB (0%)
Language                                 : English
Default                                  : Yes
Forced                                   : No

Text #2
ID                                       : 5
Format                                   : UTF-8
Codec ID                                 : S_TEXT/UTF8
Codec ID/Info                            : UTF-8 Plain Text
Duration                                 : 1 h 56 min
Bit rate                                 : 38 b/s
Count of elements                        : 1210
Stream size                              : 32.7 KiB (0%)
Language                                 : English
Default                                  : No
Forced                                   : No

Text #3
ID                                       : 6
ID in the original source medium         : 4608 (0x1200)
Format                                   : PGS
Muxing mode                              : zlib
Codec ID                                 : S_HDMV/PGS
Codec ID/Info                            : Picture based subtitle format used on BDs/HD-DVDs
Duration                                 : 1 h 56 min
Bit rate                                 : 28.2 kb/s
Count of elements                        : 2041
Stream size                              : 23.5 MiB (0%)
Language                                 : Chinese
Default                                  : No
Forced                                   : No
Original source medium                   : Blu-ray

Text #4
ID                                       : 7
ID in the original source medium         : 4609 (0x1201)
Format                                   : PGS
Muxing mode                              : zlib
Codec ID                                 : S_HDMV/PGS
Codec ID/Info                            : Picture based subtitle format used on BDs/HD-DVDs
Duration                                 : 1 h 56 min
Bit rate                                 : 27.7 kb/s
Count of elements                        : 2049
Stream size                              : 23.1 MiB (0%)
Language                                 : Chinese
Default                                  : No
Forced                                   : No
Original source medium                   : Blu-ray

Text #5
ID                                       : 8
ID in the original source medium         : 4610 (0x1202)
Format                                   : PGS
Muxing mode                              : zlib
Codec ID                                 : S_HDMV/PGS
Codec ID/Info                            : Picture based subtitle format used on BDs/HD-DVDs
Duration                                 : 1 h 56 min
Bit rate                                 : 31.4 kb/s
Count of elements                        : 2049
Stream size                              : 26.1 MiB (0%)
Language                                 : English
Default                                  : No
Forced                                   : No
Original source medium                   : Blu-ray

Text #6
ID                                       : 9
ID in the original source medium         : 4611 (0x1203)
Format                                   : PGS
Muxing mode                              : zlib
Codec ID                                 : S_HDMV/PGS
Codec ID/Info                            : Picture based subtitle format used on BDs/HD-DVDs
Duration                                 : 1 h 56 min
Bit rate                                 : 27.7 kb/s
Count of elements                        : 1938
Stream size                              : 23.1 MiB (0%)
Language                                 : Chinese
Default                                  : No
Forced                                   : No
Original source medium                   : Blu-ray

Text #7
ID                                       : 10
ID in the original source medium         : 4612 (0x1204)
Format                                   : PGS
Muxing mode                              : zlib
Codec ID                                 : S_HDMV/PGS
Codec ID/Info                            : Picture based subtitle format used on BDs/HD-DVDs
Duration                                 : 1 h 56 min
Bit rate                                 : 27.3 kb/s
Count of elements                        : 1946
Stream size                              : 22.7 MiB (0%)
Language                                 : Chinese
Default                                  : No
Forced                                   : No
Original source medium                   : Blu-ray

Text #8
ID                                       : 11
ID in the original source medium         : 4613 (0x1205)
Format                                   : PGS
Muxing mode                              : zlib
Codec ID                                 : S_HDMV/PGS
Codec ID/Info                            : Picture based subtitle format used on BDs/HD-DVDs
Duration                                 : 1 h 56 min
Bit rate                                 : 30.8 kb/s
Count of elements                        : 1946
Stream size                              : 25.6 MiB (0%)
Language                                 : English
Default                                  : No
Forced                                   : No
Original source medium                   : Blu-ray

Menu
00:00:00.000                             : en:Chapter 01
00:10:25.750                             : en:Chapter 02
00:20:18.750                             : en:Chapter 03
00:30:07.958                             : en:Chapter 04
00:38:49.541                             : en:Chapter 05
00:52:53.250                             : en:Chapter 06
01:02:53.375                             : en:Chapter 07
01:13:14.541                             : en:Chapter 08
01:26:47.541                             : en:Chapter 09
01:34:34.500                             : en:Chapter 10
01:43:26.500                             : en:Chapter 11
01:52:06.416                             : en:Chapter 12

b8d62b076c5fb1c3f47edc8044e9a0a0.png

[/url]ce14a3d77cbe3fca9be51aaa3b09cf87.png

[/url]



                                                                                                                                                                                                        
                                                                                                                                                                                                                                                                                                                                                                                                                                                                                                                                                                                                                                                                                                                                                                                                                                                        
08311eeed2424ce0ab19dd5abea93042.torrent (23.06 KB, 下载次数: 0)

回复

使用道具 举报

小黑屋|西西论坛

本网站所有资源来自网络,如无意中侵犯了您的权益,请发邮件至 [email protected],立即清除相关链接

GMT+8, 2021-11-28 11:45 , Processed in 0.141609 second(s), 17 queries .

Powered by Discuz! X3.2

© 2001-2013 Comsenz Inc.

快速回复 返回顶部 返回列表