西西论坛

 找回密码
 立即注册
搜索

巴德尔和迈因霍夫集团 The.Baader.Meinhof.Complex.2008.GERMAN.1080p.BluRay.x264.DT ...

[复制链接]
admin 发表于 6 天前 | 显示全部楼层 |阅读模式
巴德尔和迈因霍夫集团 The.Baader.Meinhof.Complex.2008.GERMAN.1080p.BluRay.x264.DTS-CHD 13.1                                                                                                                                                                                                                                                                                                                                                                                                                                                                                                                                        -->
帖子完整标题:巴德尔和迈因霍夫集团 The.Baader.Meinhof.Complex.2008.GERMAN.1080p.BluRay.x264.DTS-CHD 13.10GB



2721ee37e8410e47dfec1bb5ca52cedc.jpg



◎译  名 巴德尔和迈因霍夫集团/The Baader Meinhof Complex
◎片  名 Der Baader Meinhof Komplex
◎年  代 2008
◎产  地 德国/法国/捷克
◎类  别 剧情 / 动作 / 传记 / 历史 / 犯罪
◎语  言 德语,英语,法语,瑞典语
◎上映日期 2008-09-25
◎豆瓣评分 7.8/10 from 3382 users
◎豆瓣链接 
◎片  长 150 分钟
◎导  演 乌利·埃德尔 Uli Edel
◎编  剧 斯戴芬·奥斯特 Stefan Aust / 乌利·埃德尔 Uli Edel / 贝尔恩德·艾辛格 Bernd Eichinger
◎主  演 马蒂娜·格德克 Martina Gedeck
       莫里兹·布雷多 Moritz Bleibtreu
       约翰娜·沃卡莱克 Johanna Wokalek
       Kim Frank Kim Frank
       利奥波德·霍尔农 Leopold Hornung
       Leonie Brandis Leonie Brandis
       Ben Braun Ben Braun
       塞巴斯蒂安·鲁格 Sebastian Rüger
       Stephan M?ller-Titel Stephan M?ller-Titel
       尼尔斯-布鲁诺·施密特 Niels-Bruno Schmidt
       Martin Walch Martin Walch
       安娜·塔巴赫 Anna Thalbach
       托马斯·蒂梅 Thomas Thieme
       Ralph Kretschmar Ralph Kretschmar
       Nina Eichinger Nina Eichinger
       法拉赫·巴列维 Empress Farah
       史蒂芬·梅耶-科尔霍夫 Stephan Meyer-Kohlhoff
       雅各布·迪尔 Jakob Diehl
       布里塔·哈梅尔施泰因 Britta Hammelstein
       Martin Glade Martin Glade
       克斯腾·布劳克 Kirsten Block
        Joel Cross
        Jan Haufe
        Adam Jaskolka
        Paul Schwesig
       贝恩德·斯特格曼 Bernd Stegemann
       Elisabeth Schwarz Elisabeth Schwarz
       卡塔琳娜·瓦克纳格尔 Katharina Wackernagel
       苏珊妮·博曼 Susanne Bormann
       海诺·费尔希 Heino Ferch
       扬·约瑟夫·利费斯 Jan Josef Liefers
       卡罗·柳别克 Carlo Ljubek
       塞巴斯蒂安·布隆贝格 Sebastian Blomberg
       贾思敏·塔巴塔拜 Jasmin Tabatabai
       纳嘉·乌尔 Nadja Uhl
       米夏埃尔·格维斯戴克 Michael Gwisdek
       文森兹·凯弗 Vinzenz Kiefer
       汤姆·希林 Tom Schilling
       汉斯·沃那·麦耶 Hans Werner Meyer
       沃尔克·布鲁赫 Volker Bruch
       杰拉德·亚历山大·海德 Gerald Alexander Held
       Christian Schmidt Christian Schmidt
       Jona Mues Jona Mues
       Wolfgang Pregler Wolfgang Pregler
       松妮·梅勒斯 Sunnyi Melles
       西蒙·利希特 Simon Licht
       Norbert Hülm Norbert Hülm
       桑德拉·伯格曼 Sandra Borgmann
       Andreas Borcherding Andreas Borcherding
       约阿希姆·保罗·阿斯波克 Joachim Paul Assb?ck
       汉娜·赫茨施普龙 Hannah Herzsprung
       斯坦奇·艾塞克 Stipe Erceg
       亚历山德拉·玛丽亚·拉娜 Alexandra Maria Lara
       迈克尔·施内克 Michael Schenk
       布鲁诺·冈茨 Bruno Ganz

◎标  签 德国 |  | 历史 | 德国电影 | RAF | 恐怖活动 | 2008 | 传记

◎简  介

  本片讲述了1970年代德国极左恐怖组织“红军支队”的兴衰史。由安德里亚斯·巴德尔(莫里兹·布雷多 Moritz Bleibtreu饰)和乌尔丽克·迈因霍夫(马蒂娜·戈黛特 Martina Gedeck饰)领导的德国无政府主义组织“红军支队”,从1972年开始一直从事极左的恐怖活动。在标榜以德国“国家道德腐败”的名义下,该组织试图创建一个更加人性化的社会体制。然而他们正是用以暴制暴的方式,犯下了多起暗杀、爆炸攻击以及绑架的罪行,所谓的人性在嗜血成性的恐怖事件当中消失殆尽。
  
  影片根据记者斯特凡·奥斯特80年代的畅销书改编而成,荣获2009年第81届奥斯卡金像奖最佳外语片提名,2009年第66届金球奖电影类-最佳外语片提名,2009年第22届欧洲电影奖最佳男演员提名等多项大奖。

◎获奖情况

  第81届奥斯卡金像奖 ?(2009)
  最佳外语片(提名) 乌利·埃德尔
  
  第66届金球奖 ?(2009)
  电影类最佳外语片(提名)
  
  第22届欧洲电影奖 ?(2009)
  观众选择奖(提名)
  最佳男主角(提名) 莫里兹·布雷多
  费比西-杰出成就奖(提名) 沃德马尔·波克罗姆斯基
Video
ID                                       : 1
Format                                   : AVC
Format/Info                              : Advanced Video Codec
Format profile                           :
Format settings                          : CABAC / 4 Ref Frames
Format settings, CABAC                   : Yes
Format settings, Reference frames        : 4 frames
Codec ID                                 : V_MPEG4/ISO/AVC
Duration                                 : 2 h 29 min
Bit rate                                 : 11.8 Mb/s
Width                                    : 1 920 pixels
Height                                   : 1 040 pixels
Display aspect ratio                     : 1.85:1
Frame rate mode                          : Constant
Frame rate                               : 23.976 FPS
Color space                              : YUV
Chroma subsampling                       : 4:2:0
Bit depth                                : 8 bits
Scan type                                : Progressive
Bits/(Pixel*Frame)                       : 0.246
Stream size                              : 12.3 GiB (94%)
Writing library                          : x264 core 88 r1471 1144615
Encoding settings                        : cabac=1 / ref=4 / deblock=1:-3:-3 / analyse=0x3:0x113 / me=umh / subme=10 / psy=1 / psy_rd=1.05:0.10 / mixed_ref=1 / me_range=32 / chroma_me=1 / trellis=2 / 8x8dct=1 / cqm=0 / deadzone=21,11 / fast_pskip=0 / chroma_qp_offset=-2 / threads=12 / sliced_threads=0 / nr=0 / decimate=1 / mbaff=0 / constrained_intra=0 / bframes=3 / b_pyramid=2 / b_adapt=2 / b_bias=0 / direct=3 / wpredb=1 / wpredp=2 / keyint=250 / keyint_min=25 / scenecut=40 / intra_refresh=0 / rc_lookahead=50 / rc=2pass / mbtree=1 / bitrate=11785 / ratetol=2.0 / qcomp=0.70 / qpmin=10 / qpmax=51 / qpstep=4 / cplxblur=20.0 / qblur=0.5 / vbv_maxrate=50000 / vbv_bufsize=50000 / ip_ratio=1.40 / aq=1:1.00
Language                                 : German
Default                                  : No
Forced                                   : No

Audio
ID                                       : 2
Format                                   : DTS
Format/Info                              : Digital Theater Systems
Codec ID                                 : A_DTS
Duration                                 : 2 h 29 min
Bit rate mode                            : Constant
Bit rate                                 : 768 kb/s
Channel(s)                               : 6 channels
Channel layout                           : C L R Ls Rs LFE
Sampling rate                            : 48.0 kHz
Frame rate                               : 93.750 FPS (512 SPF)
Bit depth                                : 24 bits
Compression mode                         : Lossy
Stream size                              : 822 MiB (6%)
Title                                    : German, DTSMA 5.1 Core @ 768 kbps, 48 kHz, 24 bit
Language                                 : German
Default                                  : Yes
Forced                                   : No

Text #1
ID                                       : 3
Format                                   : UTF-8
Codec ID                                 : S_TEXT/UTF8
Codec ID/Info                            : UTF-8 Plain Text
Duration                                 : 2 h 21 min
Bit rate                                 : 47 b/s
Count of elements                        : 1154
Stream size                              : 49.1 KiB (0%)
Language                                 : English
Default                                  : No
Forced                                   : No

Text #2
ID                                       : 4
Format                                   : UTF-8
Codec ID                                 : S_TEXT/UTF8
Codec ID/Info                            : UTF-8 Plain Text
Duration                                 : 2 h 21 min
Bit rate                                 : 63 b/s
Count of elements                        : 1294
Stream size                              : 65.5 KiB (0%)
Language                                 : German
Default                                  : No
Forced                                   : No

Text #3
ID                                       : 5
Format                                   : UTF-8
Codec ID                                 : S_TEXT/UTF8
Codec ID/Info                            : UTF-8 Plain Text
Duration                                 : 2 h 20 min
Bit rate                                 : 54 b/s
Count of elements                        : 1289
Stream size                              : 55.6 KiB (0%)
Language                                 : French
Default                                  : No
Forced                                   : No

Menu
00:00:00.000                             : :Chapter 1
00:04:48.166                             : :Chapter 2
00:09:24.958                             : :Chapter 3
00:13:57.958                             : :Chapter 4
00:18:34.750                             : :Chapter 5
00:21:27.541                             : :Chapter 6
00:26:10.833                             : :Chapter 7
00:30:25.958                             : :Chapter 8
00:34:01.541                             : :Chapter 9
00:39:31.416                             : :Chapter 10
00:44:02.250                             : :Chapter 11
00:46:52.875                             : :Chapter 12
00:53:55.916                             : :Chapter 13
00:56:12.416                             : :Chapter 14
01:02:16.958                             : :Chapter 15
01:07:26.791                             : :Chapter 16
01:12:01.958                             : :Chapter 17
01:16:00.291                             : :Chapter 18
01:20:25.708                             : :Chapter 19
01:29:23.583                             : :Chapter 20
01:33:40.875                             : :Chapter 21
01:39:40.000                             : :Chapter 22
01:44:42.250                             : :Chapter 23
01:49:45.041                             : :Chapter 24
01:53:56.375                             : :Chapter 25
02:01:16.208                             : :Chapter 26
02:04:40.416                             : :Chapter 27
02:08:47.416                             : :Chapter 28
02:09:56.208                             : :Chapter 29
02:15:12.541                             : :Chapter 30
02:18:47.041                             : :Chapter 31
02:21:52.291                             : :Chapter 32
02:29:32.500                             : :Chapter 33

3e0e7eeb3833f37df5076eb138461979.png

[/url]e1a22e2ebbf599033997a3f55723c6ad.png

[/url]



                                                                                                                                                                                                        
                                                                                                                                                                                                                                                                                                                                                                                                                                                                                                                                                                                                                                                                                                                                                                                                                                                        
ee86754d0ed2044194976eea8f9d02c8.torrent (17.03 KB, 下载次数: 0)

回复

使用道具 举报

小黑屋|西西论坛

本网站所有资源来自网络,如无意中侵犯了您的权益,请发邮件至 [email protected],立即清除相关链接

GMT+8, 2021-11-28 11:03 , Processed in 0.122211 second(s), 17 queries .

Powered by Discuz! X3.2

© 2001-2013 Comsenz Inc.

快速回复 返回顶部 返回列表