西西论坛

 找回密码
 立即注册
搜索

哈瓦那/哈瓦娜 Havana.1990.iNTERNAL.720p.BluRay.x264-PEGASUS 7.99GB

[复制链接]
admin 发表于 2021-11-22 17:41:35 | 显示全部楼层 |阅读模式
哈瓦那/哈瓦娜 Havana.1990.iNTERNAL.720p.BluRay.x264-PEGASUS 7.99GB                                                                                                                                                                                                                                                                                                                                                                                                                                                                                                                                        -->
帖子完整标题:哈瓦那/哈瓦娜 Havana.1990.iNTERNAL.720p.BluRay.x264-PEGASUS 7.99GB



fe01c90b3f638f3a895bd9697a22ab74.jpg



◎译  名 哈瓦那/哈瓦娜/情迷夏湾拿
◎片  名 Havana
◎年  代 1990
◎产  地 美国
◎类  别 剧情
◎语  言 英语,西班牙语
◎上映日期 1990-12-12
◎豆瓣评分 7.3/10 from 367 users
◎豆瓣链接 
◎片  长 144 分钟
◎导  演 西德尼·波拉克 Sydney Pollack
◎编  剧 朱迪丝·拉斯科 Judith Rascoe / 大卫·雷菲尔德 David Rayfiel
◎主  演 罗伯特·雷德福 Robert Redford
       莉娜·奥琳 Lena Olin
       艾伦·阿金 Alan Arkin
       托马斯·米连 Tomas Milian
       丹尼尔·戴维斯 Daniel Davis
       欧文·罗兹曼 Owen Roizman

◎标  签 美国 | 爱情 | 美国电影 | 哈瓦那 | RobertRedford | 战争 | 1990 | 经典

◎简  介

  1958年12月,古巴,职业睹徒杰克前往古巴的首都哈瓦娜,参加一场大型扑克牌赛,期望藉此大挥一笔。他在当地邂逅了一名美丽的已婚女子罗贝塔,她的丈夫是当地的共产党革命领袖,两人情不自禁的坠入了情网。此时,罗贝塔的丈夫遭军队杀害,她也被政府逮捕烤问,杰克试着将她救出,但是他却无法阻止罗贝塔对革命的狂热支持……

◎获奖情况

  第63届奥斯卡金像奖 ?(1991)
  最佳原创配乐(提名) 戴夫·格鲁辛
Video
ID                                       : 1
Format                                   : AVC
Format/Info                              : Advanced Video Codec
Format profile                           :
Format settings                          : CABAC / 9 Ref Frames
Format settings, CABAC                   : Yes
Format settings, Reference frames        : 9 frames
Codec ID                                 : V_MPEG4/ISO/AVC
Duration                                 : 2 h 24 min
Bit rate                                 : 7 252 kb/s
Width                                    : 1 280 pixels
Height                                   : 692 pixels
Display aspect ratio                     : 1.85:1
Frame rate mode                          : Constant
Frame rate                               : 23.976 (24000/1001/189150) FPS
Color space                              : YUV
Chroma subsampling                       : 4:2:0
Bit depth                                : 8 bits
Scan type                                : Progressive
Bits/(Pixel*Frame)                       : 0.341
Stream size                              : 7.33 GiB (92%)
Writing library                          : x264 core 163 r3059 b684ebe0
Encoding settings                        : cabac=1 / ref=9 / deblock=1:-3:-3 / analyse=0x3:0x133 / me=umh / subme=10 / psy=1 / psy_rd=1.00:0.00 / mixed_ref=1 / me_range=32 / chroma_me=1 / trellis=2 / 8x8dct=1 / cqm=0 / deadzone=21,11 / fast_pskip=0 / chroma_qp_offset=-2 / threads=22 / lookahead_threads=5 / sliced_threads=0 / nr=0 / decimate=0 / interlaced=0 / bluray_compat=0 / constrained_intra=0 / bframes=16 / b_pyramid=2 / b_adapt=2 / b_bias=0 / direct=3 / weightb=1 / open_gop=0 / weightp=2 / keyint=240 / keyint_min=24 / scenecut=40 / intra_refresh=0 / rc_lookahead=60 / rc=crf / mbtree=0 / crf=18.2 / qcomp=0.60 / qpmin=0 / qpmax=69 / qpstep=4 / vbv_maxrate=62500 / vbv_bufsize=78125 / crf_max=0.0 / nal_hrd=none / filler=0 / ip_ratio=1.40 / pb_ratio=1.30 / aq=2:1.00
Default                                  : Yes
Forced                                   : No
Color range                              : Limited
Color primaries                          : BT.709
Transfer characteristics                 : BT.709
Matrix coefficients                      : BT.709

Audio #1
ID                                       : 2
Format                                   : FLAC
Format/Info                              : Free Lossless Audio Codec
Codec ID                                 : A_FLAC
Duration                                 : 2 h 24 min
Bit rate mode                            : Variable
Bit rate                                 : 569 kb/s
Channel(s)                               : 2 channels
Channel layout                           : L R
Sampling rate                            : 48.0 kHz
Frame rate                               : 11.719 FPS (4096 SPF)
Bit depth                                : 16 bits
Compression mode                         : Lossless
Delay relative to video                  : 11 s 11 ms
Stream size                              : 588 MiB (7%)
Writing library                          : libFLAC 1.2.1 (UTC 2007-09-17)
Language                                 : English
Default                                  : Yes
Forced                                   : No

Audio #2
ID                                       : 3
Format                                   : AAC LC
Format/Info                              : Advanced Audio Codec Low Complexity
Codec ID                                 : A_AAC-2
Duration                                 : 2 h 24 min
Bit rate                                 : 81.9 kb/s
Channel(s)                               : 2 channels
Channel layout                           : L R
Sampling rate                            : 48.0 kHz
Frame rate                               : 46.875 FPS (1024 SPF)
Compression mode                         : Lossy
Delay relative to video                  : 11 s 11 ms
Stream size                              : 84.6 MiB (1%)
Title                                    : Commentary by Film Historian and Critic Sergio Mims
Language                                 : English
Default                                  : No
Forced                                   : No

Text
ID                                       : 4
Format                                   : UTF-8
Codec ID                                 : S_TEXT/UTF8
Codec ID/Info                            : UTF-8 Plain Text
Duration                                 : 2 h 20 min
Bit rate                                 : 50 b/s
Count of elements                        : 1830
Stream size                              : 51.8 KiB (0%)
Language                                 : English
Default                                  : No
Forced                                   : No

Menu
00:00:11.011                             : :Chapter 1
00:10:43.393                             : :Chapter 2
00:23:43.797                             : :Chapter 3
00:39:40.962                             : :Chapter 4
00:50:45.918                             : :Chapter 5
01:11:05.553                             : :Chapter 6
01:24:28.063                             : :Chapter 7
01:38:05.421                             : :Chapter 8
01:52:39.920                             : :Chapter 9
02:05:46.497                             : :Chapter 10

81f00a09ace34d6b02b5afb8596a33c3.jpg





                                                                                                                                                                                                        
                                                                                                                                                                                                                                                                                                                                                                                                                                                                                                                                                                                                                                                                                                                                                                                                                                                        
d92172960d93f72c846fc094f9b58342.torrent (20.69 KB, 下载次数: 0)

回复

使用道具 举报

小黑屋|西西论坛

本网站所有资源来自网络,如无意中侵犯了您的权益,请发邮件至 [email protected],立即清除相关链接

GMT+8, 2021-12-3 14:35 , Processed in 0.117831 second(s), 17 queries .

Powered by Discuz! X3.2

© 2001-2013 Comsenz Inc.

快速回复 返回顶部 返回列表