西西论坛

 找回密码
 立即注册
搜索

最终幻想:灵魂深处/公主蒙难记 Final.Fantasy.The.Spirits.Within.2001.1080p.BluRay. ...

[复制链接]
admin 发表于 6 天前 | 显示全部楼层 |阅读模式
最终幻想:灵魂深处/公主蒙难记 Final.Fantasy.The.Spirits.Within.2001.1080p.BluRay.x264.DTS-HD.M                                                                                                                                                                                                                                                                                                                                                                                                                                                                                                                                        -->
帖子完整标题:最终幻想:灵魂深处/公主蒙难记 Final.Fantasy.The.Spirits.Within.2001.1080p.BluRay.x264.DTS-HD.MA.7.1-FGT 10.91GB



32133ee7b5e0bed874d5cddbc62f0232.jpg



◎译  名 最终幻想:灵魂深处/公主蒙难记(台)/太空战士/太空战士之灭绝光年(港)/终极幻想
◎片  名 Final Fantasy: The Spirits Within
◎年  代 2001
◎产  地 美国,日本
◎类  别 动作 / 科幻 / 动画 / 惊悚 / 奇幻 / 冒险
◎语  言 英语
◎上映日期 2001-07-11
◎豆瓣评分 6.9/10 from 13460 users
◎豆瓣链接 
◎片  长 106 分钟
◎导  演 坂口博信 Hironobu Sakaguchi
◎编  剧 坂口博信 Hironobu Sakaguchi / Ramin Mebdy Ramin Mebdy / 阿尔·赖纳特 Al Reinert
◎主  演 温明娜 Ming-Na Wen
       亚历克·鲍德温 Alec Baldwin
       文·瑞姆斯 Ving Rhames
       史蒂夫·布西密 Steve Buscemi
       佩里·吉普林 Peri Gilpin
       唐纳德·萨瑟兰 Donald Sutherland
       詹姆斯·伍兹 James Woods
       凯斯·大卫 Keith David
       简·西蒙斯 Jean Simmons
       吴辰君 Annie Wu
       史蒂夫·奥特曼 Steve Alterman
       大卫·米驰 David Michie
       马特·阿德勒 Matt Adler
       戴维阿诺特 David Arnott
       凯茜·卡瓦蒂妮 Cathy Cavadini
       约翰·德米塔 John DeMita
       Greg Finley Greg Finley
       维基·戴维斯 Vicki Davis
       约翰·迪·马吉欧 John Di Maggio
       阿莱克斯·费尔南德斯 Alex Fernandez
       德怀特·舒尔茨 Dwight Schultz
       Lanei Chapman Lanei Chapman

◎标  签 动画 | 科幻 | 日本 | 最终幻想 | CG | 美国 | 2001 | FinalFantasy

◎简  介

  本片是以电视游戏《最终幻想》作为基础的原创CG动画电影。
  
  本片于2001年上映,在电影靠电脑绘画的道路上树立了一个新的里程碑。
  
  公元2065年,地球上充满了毁灭和混乱,城市荒芜,人口被大批残杀,整个世界造到外星生命的重创,他们通过独特的方式侵袭地球上的一切生命,少数生存下来的地球人开始反抗这些外星敌人。被毁灭的梦魇时刻缠绕着的天才女科学家罗丝是这场战争中拯救世界的关键人物,但她的计划要冒极大的危险,另一边掌握着高科技军队大权的将军也有一套自己的计划去打击外星敌人,但这个计划同样要对大自然造成更大的伤害,除非罗丝能成功……
Video
ID                                       : 1
Format                                   : AVC
Format/Info                              : Advanced Video Codec
Format profile                           :
Format settings                          : CABAC / 4 Ref Frames
Format settings, CABAC                   : Yes
Format settings, Reference frames        : 4 frames
Codec ID                                 : V_MPEG4/ISO/AVC
Duration                                 : 1 h 45 min
Bit rate                                 : 10.1 Mb/s
Width                                    : 1 920 pixels
Height                                   : 1 040 pixels
Display aspect ratio                     : 1.85:1
Frame rate mode                          : Constant
Frame rate                               : 23.976 FPS
Color space                              : YUV
Chroma subsampling                       : 4:2:0
Bit depth                                : 8 bits
Scan type                                : Progressive
Bits/(Pixel*Frame)                       : 0.211
Stream size                              : 7.46 GiB (68%)
Writing library                          : x264 core 60
Encoding settings                        : cabac=1 / ref=4 / deblock=1:-3:-3 / analyse=0x1:0x111 / me=umh / subme=6 / psy_rd=1.000000 / brdo=1 / mixed_ref=1 / me_range=16 / chroma_me=1 / trellis=0 / 8x8dct=0 / cqm=0 / deadzone=10,6 / chroma_qp_offset=0 / threads=6 / nr=0 / decimate=1 / mbaff=0 / bframes=3 / b_pyramid=1 / b_adapt=1 / b_bias=0 / direct=1 / wpredb=1 / bime=1 / keyint=250 / keyint_min=25 / scenecut=40(pre) / rc=2pass / bitrate=10092 / ratetol=1.0 / rceq=\'blurCplx^(1-qComp)\' / qcomp=1.00 / qpmin=10 / qpmax=51 / qpstep=4 / cplxblur=20.0 / qblur=0.5 / ip_ratio=1.40 / pb_ratio=1.30 / aq=2:1.50
Default                                  : Yes
Forced                                   : No

Audio
ID                                       : 2
Format                                   : DTS XLL
Format/Info                              : Digital Theater Systems
Commercial name                          : DTS-HD Master Audio
Codec ID                                 : A_DTS
Duration                                 : 1 h 45 min
Bit rate mode                            : Variable
Bit rate                                 : 4 366 kb/s
Channel(s)                               : 8 channels
Channel layout                           : C L R LFE Lb Rb Lss Rss
Sampling rate                            : 48.0 kHz
Frame rate                               : 93.750 FPS (512 SPF)
Bit depth                                : 24 bits
Compression mode                         : Lossless
Stream size                              : 3.23 GiB (30%)
Title                                    : DTS-HD MA 7.1
Language                                 : English
Default                                  : No
Forced                                   : No

Text #1
ID                                       : 3
Format                                   : UTF-8
Codec ID                                 : S_TEXT/UTF8
Codec ID/Info                            : UTF-8 Plain Text
Duration                                 : 1 h 43 min
Bit rate                                 : 46 b/s
Count of elements                        : 978
Stream size                              : 35.5 KiB (0%)
Language                                 : English
Default                                  : Yes
Forced                                   : No

Text #2
ID                                       : 4
Format                                   : UTF-8
Codec ID                                 : S_TEXT/UTF8
Codec ID/Info                            : UTF-8 Plain Text
Duration                                 : 1 h 45 min
Bit rate                                 : 51 b/s
Count of elements                        : 1141
Stream size                              : 39.9 KiB (0%)
Title                                    : SDH
Language                                 : English
Default                                  : No
Forced                                   : No

Text #3
ID                                       : 5
Format                                   : UTF-8
Codec ID                                 : S_TEXT/UTF8
Codec ID/Info                            : UTF-8 Plain Text
Duration                                 : 1 h 33 min
Bit rate                                 : 40 b/s
Count of elements                        : 629
Stream size                              : 28.1 KiB (0%)
Language                                 : Dutch
Default                                  : No
Forced                                   : No

Text #4
ID                                       : 6
Format                                   : UTF-8
Codec ID                                 : S_TEXT/UTF8
Codec ID/Info                            : UTF-8 Plain Text
Duration                                 : 1 h 34 min
Bit rate                                 : 41 b/s
Count of elements                        : 746
Stream size                              : 28.8 KiB (0%)
Language                                 : German
Default                                  : No
Forced                                   : No

Text #5
ID                                       : 7
Format                                   : UTF-8
Codec ID                                 : S_TEXT/UTF8
Codec ID/Info                            : UTF-8 Plain Text
Duration                                 : 1 h 33 min
Bit rate                                 : 38 b/s
Count of elements                        : 592
Stream size                              : 26.3 KiB (0%)
Language                                 : Danish
Default                                  : No
Forced                                   : No

Text #6
ID                                       : 8
Format                                   : UTF-8
Codec ID                                 : S_TEXT/UTF8
Codec ID/Info                            : UTF-8 Plain Text
Duration                                 : 1 h 34 min
Bit rate                                 : 39 b/s
Count of elements                        : 604
Stream size                              : 26.9 KiB (0%)
Language                                 : Finnish
Default                                  : No
Forced                                   : No

Text #7
ID                                       : 9
Format                                   : UTF-8
Codec ID                                 : S_TEXT/UTF8
Codec ID/Info                            : UTF-8 Plain Text
Duration                                 : 1 h 33 min
Bit rate                                 : 36 b/s
Count of elements                        : 592
Stream size                              : 25.3 KiB (0%)
Language                                 : Norwegian
Default                                  : No
Forced                                   : No

Text #8
ID                                       : 10
Format                                   : UTF-8
Codec ID                                 : S_TEXT/UTF8
Codec ID/Info                            : UTF-8 Plain Text
Duration                                 : 1 h 33 min
Bit rate                                 : 38 b/s
Count of elements                        : 592
Stream size                              : 26.5 KiB (0%)
Language                                 : Swedish
Default                                  : No
Forced                                   : No

Text #9
ID                                       : 11
ID in the original source medium         : 4768 (0x12A0)
Format                                   : PGS
Muxing mode                              : zlib
Codec ID                                 : S_HDMV/PGS
Codec ID/Info                            : Picture based subtitle format used on BDs/HD-DVDs
Duration                                 : 1 h 45 min
Bit rate                                 : 30.3 kb/s
Count of elements                        : 2312
Stream size                              : 22.8 MiB (0%)
Title                                    : SDH
Language                                 : English
Default                                  : No
Forced                                   : No
Original source medium                   : Blu-ray

Text #10
ID                                       : 12
ID in the original source medium         : 4769 (0x12A1)
Format                                   : PGS
Muxing mode                              : zlib
Codec ID                                 : S_HDMV/PGS
Codec ID/Info                            : Picture based subtitle format used on BDs/HD-DVDs
Duration                                 : 1 h 33 min
Bit rate                                 : 24.6 kb/s
Count of elements                        : 1686
Stream size                              : 16.5 MiB (0%)
Language                                 : English
Default                                  : No
Forced                                   : No
Original source medium                   : Blu-ray

Text #11
ID                                       : 13
ID in the original source medium         : 4770 (0x12A2)
Format                                   : PGS
Muxing mode                              : zlib
Codec ID                                 : S_HDMV/PGS
Codec ID/Info                            : Picture based subtitle format used on BDs/HD-DVDs
Duration                                 : 1 h 45 min
Bit rate                                 : 30.3 kb/s
Count of elements                        : 2312
Stream size                              : 22.8 MiB (0%)
Title                                    : SDH
Language                                 : English
Default                                  : No
Forced                                   : No
Original source medium                   : Blu-ray

Text #12
ID                                       : 14
ID in the original source medium         : 4771 (0x12A3)
Format                                   : PGS
Muxing mode                              : zlib
Codec ID                                 : S_HDMV/PGS
Codec ID/Info                            : Picture based subtitle format used on BDs/HD-DVDs
Duration                                 : 1 h 33 min
Bit rate                                 : 24.6 kb/s
Count of elements                        : 1686
Stream size                              : 16.5 MiB (0%)
Language                                 : English
Default                                  : No
Forced                                   : No
Original source medium                   : Blu-ray

Text #13
ID                                       : 15
ID in the original source medium         : 4772 (0x12A4)
Format                                   : PGS
Muxing mode                              : zlib
Codec ID                                 : S_HDMV/PGS
Codec ID/Info                            : Picture based subtitle format used on BDs/HD-DVDs
Duration                                 : 1 h 33 min
Bit rate                                 : 13.6 kb/s
Count of elements                        : 1690
Stream size                              : 9.17 MiB (0%)
Language                                 : Arabic
Default                                  : No
Forced                                   : No
Original source medium                   : Blu-ray

Text #14
ID                                       : 16
ID in the original source medium         : 4773 (0x12A5)
Format                                   : PGS
Muxing mode                              : zlib
Codec ID                                 : S_HDMV/PGS
Codec ID/Info                            : Picture based subtitle format used on BDs/HD-DVDs
Duration                                 : 1 h 43 min
Bit rate                                 : 19.8 kb/s
Count of elements                        : 1706
Stream size                              : 14.7 MiB (0%)
Language                                 : Chinese
Default                                  : No
Forced                                   : No
Original source medium                   : Blu-ray

Text #15
ID                                       : 17
ID in the original source medium         : 4774 (0x12A6)
Format                                   : PGS
Muxing mode                              : zlib
Codec ID                                 : S_HDMV/PGS
Codec ID/Info                            : Picture based subtitle format used on BDs/HD-DVDs
Duration                                 : 1 h 43 min
Bit rate                                 : 18.6 kb/s
Count of elements                        : 1710
Stream size                              : 13.8 MiB (0%)
Language                                 : Chinese
Default                                  : No
Forced                                   : No
Original source medium                   : Blu-ray

Text #16
ID                                       : 18
ID in the original source medium         : 4775 (0x12A7)
Format                                   : PGS
Muxing mode                              : zlib
Codec ID                                 : S_HDMV/PGS
Codec ID/Info                            : Picture based subtitle format used on BDs/HD-DVDs
Duration                                 : 1 h 33 min
Bit rate                                 : 18.9 kb/s
Count of elements                        : 1354
Stream size                              : 12.7 MiB (0%)
Language                                 : Croatian
Default                                  : No
Forced                                   : No
Original source medium                   : Blu-ray

Text #17
ID                                       : 19
ID in the original source medium         : 4776 (0x12A8)
Format                                   : PGS
Muxing mode                              : zlib
Codec ID                                 : S_HDMV/PGS
Codec ID/Info                            : Picture based subtitle format used on BDs/HD-DVDs
Duration                                 : 1 h 33 min
Bit rate                                 : 21.0 kb/s
Count of elements                        : 1688
Stream size                              : 14.1 MiB (0%)
Language                                 : Czech
Default                                  : No
Forced                                   : No
Original source medium                   : Blu-ray

Text #18
ID                                       : 20
ID in the original source medium         : 4776 (0x12A8)
Format                                   : PGS
Muxing mode                              : zlib
Codec ID                                 : S_HDMV/PGS
Codec ID/Info                            : Picture based subtitle format used on BDs/HD-DVDs
Duration                                 : 1 h 14 min
Bit rate                                 : 310 b/s
Count of elements                        : 18
Stream size                              : 169 KiB (0%)
Language                                 : Czech
Default                                  : No
Forced                                   : No
Original source medium                   : Blu-ray

Text #19
ID                                       : 21
ID in the original source medium         : 4777 (0x12A9)
Format                                   : PGS
Muxing mode                              : zlib
Codec ID                                 : S_HDMV/PGS
Codec ID/Info                            : Picture based subtitle format used on BDs/HD-DVDs
Duration                                 : 1 h 33 min
Bit rate                                 : 20.6 kb/s
Count of elements                        : 1186
Stream size                              : 13.9 MiB (0%)
Language                                 : Danish
Default                                  : No
Forced                                   : No
Original source medium                   : Blu-ray

Text #20
ID                                       : 22
ID in the original source medium         : 4778 (0x12AA)
Format                                   : PGS
Muxing mode                              : zlib
Codec ID                                 : S_HDMV/PGS
Codec ID/Info                            : Picture based subtitle format used on BDs/HD-DVDs
Duration                                 : 1 h 43 min
Bit rate                                 : 21.8 kb/s
Count of elements                        : 1262
Stream size                              : 16.1 MiB (0%)
Language                                 : Dutch
Default                                  : No
Forced                                   : No
Original source medium                   : Blu-ray

Text #21
ID                                       : 23
ID in the original source medium         : 4779 (0x12AB)
Format                                   : PGS
Muxing mode                              : zlib
Codec ID                                 : S_HDMV/PGS
Codec ID/Info                            : Picture based subtitle format used on BDs/HD-DVDs
Duration                                 : 1 h 34 min
Bit rate                                 : 20.8 kb/s
Count of elements                        : 1210
Stream size                              : 14.0 MiB (0%)
Language                                 : Finnish
Default                                  : No
Forced                                   : No
Original source medium                   : Blu-ray

Text #22
ID                                       : 24
ID in the original source medium         : 4780 (0x12AC)
Format                                   : PGS
Muxing mode                              : zlib
Codec ID                                 : S_HDMV/PGS
Codec ID/Info                            : Picture based subtitle format used on BDs/HD-DVDs
Duration                                 : 1 h 43 min
Bit rate                                 : 21.2 kb/s
Count of elements                        : 1644
Stream size                              : 15.7 MiB (0%)
Language                                 : French
Default                                  : No
Forced                                   : No
Original source medium                   : Blu-ray

Text #23
ID                                       : 25
ID in the original source medium         : 4780 (0x12AC)
Format                                   : PGS
Muxing mode                              : zlib
Codec ID                                 : S_HDMV/PGS
Codec ID/Info                            : Picture based subtitle format used on BDs/HD-DVDs
Duration                                 : 1 h 43 min
Bit rate                                 : 303 b/s
Count of elements                        : 22
Stream size                              : 231 KiB (0%)
Language                                 : French
Default                                  : No
Forced                                   : No
Original source medium                   : Blu-ray

Text #24
ID                                       : 26
ID in the original source medium         : 4781 (0x12AD)
Format                                   : PGS
Muxing mode                              : zlib
Codec ID                                 : S_HDMV/PGS
Codec ID/Info                            : Picture based subtitle format used on BDs/HD-DVDs
Duration                                 : 1 h 34 min
Bit rate                                 : 24.2 kb/s
Count of elements                        : 1492
Stream size                              : 16.3 MiB (0%)
Language                                 : German
Default                                  : No
Forced                                   : No
Original source medium                   : Blu-ray

Text #25
ID                                       : 27
ID in the original source medium         : 4781 (0x12AD)
Format                                   : PGS
Muxing mode                              : zlib
Codec ID                                 : S_HDMV/PGS
Codec ID/Info                            : Picture based subtitle format used on BDs/HD-DVDs
Duration                                 : 1 h 14 min
Bit rate                                 : 318 b/s
Count of elements                        : 18
Stream size                              : 173 KiB (0%)
Language                                 : German
Default                                  : No
Forced                                   : No
Original source medium                   : Blu-ray

Text #26
ID                                       : 28
ID in the original source medium         : 4782 (0x12AE)
Format                                   : PGS
Muxing mode                              : zlib
Codec ID                                 : S_HDMV/PGS
Codec ID/Info                            : Picture based subtitle format used on BDs/HD-DVDs
Duration                                 : 1 h 33 min
Bit rate                                 : 24.9 kb/s
Count of elements                        : 1694
Stream size                              : 16.8 MiB (0%)
Language                                 : Greek
Default                                  : No
Forced                                   : No
Original source medium                   : Blu-ray

Text #27
ID                                       : 29
ID in the original source medium         : 4783 (0x12AF)
Format                                   : PGS
Muxing mode                              : zlib
Codec ID                                 : S_HDMV/PGS
Codec ID/Info                            : Picture based subtitle format used on BDs/HD-DVDs
Duration                                 : 1 h 33 min
Bit rate                                 : 18.3 kb/s
Count of elements                        : 1688
Stream size                              : 12.3 MiB (0%)
Language                                 : Hebrew
Default                                  : No
Forced                                   : No
Original source medium                   : Blu-ray

Text #28
ID                                       : 30
ID in the original source medium         : 4784 (0x12B0)
Format                                   : PGS
Muxing mode                              : zlib
Codec ID                                 : S_HDMV/PGS
Codec ID/Info                            : Picture based subtitle format used on BDs/HD-DVDs
Duration                                 : 1 h 43 min
Bit rate                                 : 16.6 kb/s
Count of elements                        : 1694
Stream size                              : 12.3 MiB (0%)
Language                                 : Hindi
Default                                  : No
Forced                                   : No
Original source medium                   : Blu-ray

Text #29
ID                                       : 31
ID in the original source medium         : 4785 (0x12B1)
Format                                   : PGS
Muxing mode                              : zlib
Codec ID                                 : S_HDMV/PGS
Codec ID/Info                            : Picture based subtitle format used on BDs/HD-DVDs
Duration                                 : 1 h 33 min
Bit rate                                 : 19.0 kb/s
Count of elements                        : 1690
Stream size                              : 12.8 MiB (0%)
Language                                 : Hungarian
Default                                  : No
Forced                                   : No
Original source medium                   : Blu-ray

Text #30
ID                                       : 32
ID in the original source medium         : 4785 (0x12B1)
Format                                   : PGS
Muxing mode                              : zlib
Codec ID                                 : S_HDMV/PGS
Codec ID/Info                            : Picture based subtitle format used on BDs/HD-DVDs
Duration                                 : 4 s 254 ms
Bit rate                                 : 69.0 kb/s
Count of elements                        : 4
Stream size                              : 35.8 KiB (0%)
Language                                 : Hungarian
Default                                  : No
Forced                                   : No
Original source medium                   : Blu-ray

Text #31
ID                                       : 33
ID in the original source medium         : 4786 (0x12B2)
Format                                   : PGS
Muxing mode                              : zlib
Codec ID                                 : S_HDMV/PGS
Codec ID/Info                            : Picture based subtitle format used on BDs/HD-DVDs
Duration                                 : 1 h 43 min
Bit rate                                 : 21.7 kb/s
Count of elements                        : 1690
Stream size                              : 16.1 MiB (0%)
Language                                 : Icelandic
Default                                  : No
Forced                                   : No
Original source medium                   : Blu-ray

Text #32
ID                                       : 34
ID in the original source medium         : 4787 (0x12B3)
Format                                   : PGS
Muxing mode                              : zlib
Codec ID                                 : S_HDMV/PGS
Codec ID/Info                            : Picture based subtitle format used on BDs/HD-DVDs
Duration                                 : 1 h 43 min
Bit rate                                 : 23.4 kb/s
Count of elements                        : 1700
Stream size                              : 17.4 MiB (0%)
Language                                 : Italian
Default                                  : No
Forced                                   : No
Original source medium                   : Blu-ray

Text #33
ID                                       : 35
ID in the original source medium         : 4787 (0x12B3)
Format                                   : PGS
Muxing mode                              : zlib
Codec ID                                 : S_HDMV/PGS
Codec ID/Info                            : Picture based subtitle format used on BDs/HD-DVDs
Duration                                 : 1 h 42 min
Bit rate                                 : 303 b/s
Count of elements                        : 20
Stream size                              : 229 KiB (0%)
Language                                 : Italian
Default                                  : No
Forced                                   : No
Original source medium                   : Blu-ray

Text #34
ID                                       : 36
ID in the original source medium         : 4788 (0x12B4)
Format                                   : PGS
Muxing mode                              : zlib
Codec ID                                 : S_HDMV/PGS
Codec ID/Info                            : Picture based subtitle format used on BDs/HD-DVDs
Duration                                 : 1 h 35 min
Bit rate                                 : 19.8 kb/s
Count of elements                        : 1708
Stream size                              : 13.5 MiB (0%)
Language                                 : Korean
Default                                  : No
Forced                                   : No
Original source medium                   : Blu-ray

Text #35
ID                                       : 37
ID in the original source medium         : 4789 (0x12B5)
Format                                   : PGS
Muxing mode                              : zlib
Codec ID                                 : S_HDMV/PGS
Codec ID/Info                            : Picture based subtitle format used on BDs/HD-DVDs
Duration                                 : 1 h 33 min
Bit rate                                 : 20.1 kb/s
Count of elements                        : 1188
Stream size                              : 13.5 MiB (0%)
Language                                 : Norwegian
Default                                  : No
Forced                                   : No
Original source medium                   : Blu-ray

Text #36
ID                                       : 38
ID in the original source medium         : 4790 (0x12B6)
Format                                   : PGS
Muxing mode                              : zlib
Codec ID                                 : S_HDMV/PGS
Codec ID/Info                            : Picture based subtitle format used on BDs/HD-DVDs
Duration                                 : 1 h 43 min
Bit rate                                 : 16.5 kb/s
Count of elements                        : 1690
Stream size                              : 12.2 MiB (0%)
Language                                 : Polish
Default                                  : No
Forced                                   : No
Original source medium                   : Blu-ray

Text #37
ID                                       : 39
ID in the original source medium         : 4791 (0x12B7)
Format                                   : PGS
Muxing mode                              : zlib
Codec ID                                 : S_HDMV/PGS
Codec ID/Info                            : Picture based subtitle format used on BDs/HD-DVDs
Duration                                 : 1 h 33 min
Bit rate                                 : 27.1 kb/s
Count of elements                        : 1720
Stream size                              : 18.2 MiB (0%)
Language                                 : Portuguese
Default                                  : No
Forced                                   : No
Original source medium                   : Blu-ray

Text #38
ID                                       : 40
ID in the original source medium         : 4792 (0x12B8)
Format                                   : PGS
Muxing mode                              : zlib
Codec ID                                 : S_HDMV/PGS
Codec ID/Info                            : Picture based subtitle format used on BDs/HD-DVDs
Duration                                 : 1 h 45 min
Bit rate                                 : 22.9 kb/s
Count of elements                        : 1708
Stream size                              : 17.2 MiB (0%)
Language                                 : Romanian
Default                                  : No
Forced                                   : No
Original source medium                   : Blu-ray

Text #39
ID                                       : 41
ID in the original source medium         : 4793 (0x12B9)
Format                                   : PGS
Muxing mode                              : zlib
Codec ID                                 : S_HDMV/PGS
Codec ID/Info                            : Picture based subtitle format used on BDs/HD-DVDs
Duration                                 : 1 h 42 min
Bit rate                                 : 24.2 kb/s
Count of elements                        : 1742
Stream size                              : 17.9 MiB (0%)
Language                                 : Russian
Default                                  : No
Forced                                   : No
Original source medium                   : Blu-ray

Text #40
ID                                       : 42
ID in the original source medium         : 4793 (0x12B9)
Format                                   : PGS
Muxing mode                              : zlib
Codec ID                                 : S_HDMV/PGS
Codec ID/Info                            : Picture based subtitle format used on BDs/HD-DVDs
Duration                                 : 4 s 295 ms
Bit rate                                 : 123 kb/s
Count of elements                        : 4
Stream size                              : 64.3 KiB (0%)
Language                                 : Russian
Default                                  : No
Forced                                   : No
Original source medium                   : Blu-ray

Text #41
ID                                       : 43
ID in the original source medium         : 4794 (0x12BA)
Format                                   : PGS
Muxing mode                              : zlib
Codec ID                                 : S_HDMV/PGS
Codec ID/Info                            : Picture based subtitle format used on BDs/HD-DVDs
Duration                                 : 1 h 33 min
Bit rate                                 : 22.9 kb/s
Count of elements                        : 1706
Stream size                              : 15.4 MiB (0%)
Language                                 : Slovenian
Default                                  : No
Forced                                   : No
Original source medium                   : Blu-ray

Text #42
ID                                       : 44
ID in the original source medium         : 4795 (0x12BB)
Format                                   : PGS
Muxing mode                              : zlib
Codec ID                                 : S_HDMV/PGS
Codec ID/Info                            : Picture based subtitle format used on BDs/HD-DVDs
Duration                                 : 1 h 35 min
Bit rate                                 : 20.1 kb/s
Count of elements                        : 1704
Stream size                              : 13.8 MiB (0%)
Language                                 : Spanish
Default                                  : No
Forced                                   : No
Original source medium                   : Blu-ray

Text #43
ID                                       : 45
ID in the original source medium         : 4795 (0x12BB)
Format                                   : PGS
Muxing mode                              : zlib
Codec ID                                 : S_HDMV/PGS
Codec ID/Info                            : Picture based subtitle format used on BDs/HD-DVDs
Duration                                 : 1 h 15 min
Bit rate                                 : 431 b/s
Count of elements                        : 20
Stream size                              : 239 KiB (0%)
Language                                 : Spanish
Default                                  : No
Forced                                   : No
Original source medium                   : Blu-ray

Text #44
ID                                       : 46
ID in the original source medium         : 4796 (0x12BC)
Format                                   : PGS
Muxing mode                              : zlib
Codec ID                                 : S_HDMV/PGS
Codec ID/Info                            : Picture based subtitle format used on BDs/HD-DVDs
Duration                                 : 1 h 35 min
Bit rate                                 : 25.7 kb/s
Count of elements                        : 1698
Stream size                              : 17.6 MiB (0%)
Language                                 : Spanish
Default                                  : No
Forced                                   : No
Original source medium                   : Blu-ray

Text #45
ID                                       : 47
ID in the original source medium         : 4796 (0x12BC)
Format                                   : PGS
Muxing mode                              : zlib
Codec ID                                 : S_HDMV/PGS
Codec ID/Info                            : Picture based subtitle format used on BDs/HD-DVDs
Duration                                 : 4 s 338 ms
Bit rate                                 : 107 kb/s
Count of elements                        : 4
Stream size                              : 56.9 KiB (0%)
Language                                 : Spanish
Default                                  : No
Forced                                   : No
Original source medium                   : Blu-ray

Text #46
ID                                       : 48
ID in the original source medium         : 4797 (0x12BD)
Format                                   : PGS
Muxing mode                              : zlib
Codec ID                                 : S_HDMV/PGS
Codec ID/Info                            : Picture based subtitle format used on BDs/HD-DVDs
Duration                                 : 1 h 33 min
Bit rate                                 : 19.7 kb/s
Count of elements                        : 1192
Stream size                              : 13.2 MiB (0%)
Language                                 : Swedish
Default                                  : No
Forced                                   : No
Original source medium                   : Blu-ray

Text #47
ID                                       : 49
ID in the original source medium         : 4798 (0x12BE)
Format                                   : PGS
Muxing mode                              : zlib
Codec ID                                 : S_HDMV/PGS
Codec ID/Info                            : Picture based subtitle format used on BDs/HD-DVDs
Duration                                 : 1 h 45 min
Bit rate                                 : 20.3 kb/s
Count of elements                        : 1710
Stream size                              : 15.3 MiB (0%)
Language                                 : Thai
Default                                  : No
Forced                                   : No
Original source medium                   : Blu-ray

Text #48
ID                                       : 50
ID in the original source medium         : 4799 (0x12BF)
Format                                   : PGS
Muxing mode                              : zlib
Codec ID                                 : S_HDMV/PGS
Codec ID/Info                            : Picture based subtitle format used on BDs/HD-DVDs
Duration                                 : 1 h 43 min
Bit rate                                 : 20.3 kb/s
Count of elements                        : 1676
Stream size                              : 15.1 MiB (0%)
Language                                 : Turkish
Default                                  : No
Forced                                   : No
Original source medium                   : Blu-ray

Menu
00:00:00.000                             : en:Chapter 01
00:10:02.184                             : en:Chapter 02
00:13:08.746                             : en:Chapter 03
00:17:28.380                             : en:Chapter 04
00:21:06.598                             : en:Chapter 05
00:27:43.078                             : en:Chapter 06
00:34:57.136                             : en:Chapter 07
00:41:22.271                             : en:Chapter 08
00:46:38.045                             : en:Chapter 09
00:52:41.741                             : en:Chapter 10
00:58:09.819                             : en:Chapter 11
01:03:28.596                             : en:Chapter 12
01:13:36.328                             : en:Chapter 13
01:18:43.260                             : en:Chapter 14
01:23:36.094                             : en:Chapter 15
01:30:28.172                             : en:Chapter 16

0da6c1379d49f87a3a260b6f68c0cfe1.png

[/url]32cbb95a0e690f677e5e7f91da644766.png

[/url]c728e6f94879f9371a75d01a2ac3b1b4.png

[/url]



                                                                                                                                                                                                        
                                                                                                                                                                                                                                                                                                                                                                                                                                                                                                                                                                                                                                                                                                                                                                                                                                                        
9b2c3b97b8d675438bf1cdedc25df05e.torrent (14.32 KB, 下载次数: 0)

回复

使用道具 举报

小黑屋|西西论坛

本网站所有资源来自网络,如无意中侵犯了您的权益,请发邮件至 [email protected],立即清除相关链接

GMT+8, 2021-11-28 09:53 , Processed in 0.146874 second(s), 17 queries .

Powered by Discuz! X3.2

© 2001-2013 Comsenz Inc.

快速回复 返回顶部 返回列表