西西论坛

 找回密码
 立即注册
搜索

刺杀小说家 A.Writers.Odyssey.2021.BW.720p.BluRay.x264-CiNEPHiLiA 4.06GB

[复制链接]
admin 发表于 2021-11-22 17:41:32 | 显示全部楼层 |阅读模式
刺杀小说家 A.Writers.Odyssey.2021.BW.720p.BluRay.x264-CiNEPHiLiA 4.06GB                                                                                                                                                                                                                                                                                                                                                                                                                                                                                                                                        -->
帖子完整标题:刺杀小说家 A.Writers.Odyssey.2021.BW.720p.BluRay.x264-CiNEPHiLiA 4.06GB



54459bb1b26c3ba3a8b87cf1f3c97e05.jpg



◎译  名 A Writer's Odyssey/Assassin in Red
◎片  名 刺杀小说家
◎年  代 2021
◎产  地 中国大陆
◎类  别 动作 / 奇幻 / 冒险
◎语  言 汉语普通话
◎上映日期 2021-02-12(中国大陆)
◎豆瓣评分 6.6/10 from 576971 users
◎豆瓣链接 
◎片  长 130分钟
◎导  演 路阳 Yang Lu
◎编  剧 陈舒 Shu Chen / 禹扬 Yang Yu / 秦海燕 Haiyan Qin / 路阳 Yang Lu / 双雪涛 Shuang XueTao
◎主  演 雷佳音 Jiayin Lei
       杨幂 Mi Yang
       董子健 Zijian Dong
       于和伟 Hewei Yu
       郭京飞 Jingfei Guo
       佟丽娅 Liya Tong
       董洁 Jie Dong
       王圣迪 Shengdi Wang
       杨轶 Yi Yang
       刘天佐 Tianzuo Liu
       李柄辉 Binghui Li
       萧子墨 Eric Hsiao
       双雪涛 Shuang XueTao
       徐建 Eric Xu
       高睿菲儿 Ruifeier Gao
       康嘉泽 Jiaze Kang
       谭天宇 Tianyu Tan
       杨婉婷 Wanting Yang
       马一萍 Yiping Ma
       黄皓达 Haoda Huang
       张戈 Ge Zhang
       任杰 Jie Ren
       陈铁军 Tiejun Chen
       李泰延 Taiyan Li
       张优 You Zhang

◎标  签 奇幻 | 平行世界 | 悬疑 | 动作 | 中国大陆 | 2021 | 剧情 | 电影

◎简  介

  异世界皇都,天神赤发鬼残暴统治,滥杀无辜。少年空文因被赤发鬼追杀,决定奋起反击。在黑甲(郭京飞 饰)的指引下,踏上了凡人弑神之路。这是小说家路空文(董子健 饰)笔下的奇幻世界。没想到小说的进程,竟然影响着现实世界。这时一名男子(雷佳音 饰)接下了刺杀他的任务……

◎获奖情况

  第15届亚洲电影大奖 ?(2021)
  最佳美术指导(提名) 李淼
  最佳视觉效果(提名) 魏明?/?徐建
  
  第7届豆瓣电影年度榜单 ?(2020)
  最值得期待的华语电影(提名)
Video
ID                                       : 1
Format                                   : AVC
Format/Info                              : Advanced Video Codec
Format profile                           :
Format settings                          : CABAC / 8 Ref Frames
Format settings, CABAC                   : Yes
Format settings, Reference frames        : 8 frames
Codec ID                                 : V_MPEG4/ISO/AVC
Duration                                 : 2 h 9 min
Bit rate                                 : 3 814 kb/s
Width                                    : 1 280 pixels
Height                                   : 692 pixels
Display aspect ratio                     : 1.85:1
Frame rate mode                          : Constant
Frame rate                               : 24.000 FPS
Color space                              : YUV
Chroma subsampling                       : 4:2:0
Bit depth                                : 8 bits
Scan type                                : Progressive
Bits/(Pixel*Frame)                       : 0.179
Stream size                              : 3.46 GiB (85%)
Writing library                          : x264 core 164 r3075 66a5bc1
Encoding settings                        : cabac=1 / ref=8 / deblock=1:-3:-3 / analyse=0x3:0x133 / me=umh / subme=9 / psy=1 / psy_rd=1.00:0.00 / mixed_ref=1 / me_range=24 / chroma_me=1 / trellis=2 / 8x8dct=1 / cqm=0 / deadzone=21,11 / fast_pskip=0 / chroma_qp_offset=-2 / threads=22 / lookahead_threads=2 / sliced_threads=0 / nr=0 / decimate=0 / interlaced=0 / bluray_compat=0 / constrained_intra=0 / bframes=5 / b_pyramid=2 / b_adapt=2 / b_bias=0 / direct=3 / weightb=1 / open_gop=0 / weightp=2 / keyint=250 / keyint_min=24 / scenecut=40 / intra_refresh=0 / rc_lookahead=60 / rc=crf / mbtree=0 / crf=18.3 / qcomp=0.60 / qpmin=0 / qpmax=69 / qpstep=4 / vbv_maxrate=62500 / vbv_bufsize=78125 / crf_max=0.0 / nal_hrd=none / filler=0 / ip_ratio=1.40 / pb_ratio=1.30 / aq=3:0.90
Default                                  : Yes
Forced                                   : No

Audio
ID                                       : 2
Format                                   : AC-3
Format/Info                              : Audio Coding 3
Commercial name                          : Dolby Digital
Format settings                          : Dolby Surround EX
Codec ID                                 : A_AC3
Duration                                 : 2 h 9 min
Bit rate mode                            : Constant
Bit rate                                 : 640 kb/s
Channel(s)                               : 6 channels
Channel layout                           : L R C LFE Ls Rs
Sampling rate                            : 48.0 kHz
Frame rate                               : 31.250 FPS (1536 SPF)
Compression mode                         : Lossy
Stream size                              : 595 MiB (14%)
Language                                 : Chinese
Service kind                             : Complete Main
Default                                  : Yes
Forced                                   : No

Text #1
ID                                       : 3
Format                                   : PGS
Muxing mode                              : zlib
Codec ID                                 : S_HDMV/PGS
Codec ID/Info                            : Picture based subtitle format used on BDs/HD-DVDs
Duration                                 : 2 h 7 min
Bit rate                                 : 15.5 kb/s
Count of elements                        : 2677
Stream size                              : 14.1 MiB (0%)
Language                                 : Chinese
Default                                  : No
Forced                                   : No

Text #2
ID                                       : 4
Format                                   : PGS
Muxing mode                              : zlib
Codec ID                                 : S_HDMV/PGS
Codec ID/Info                            : Picture based subtitle format used on BDs/HD-DVDs
Duration                                 : 2 h 4 min
Bit rate                                 : 21.6 kb/s
Count of elements                        : 2602
Stream size                              : 19.3 MiB (0%)
Language                                 : English
Default                                  : No
Forced                                   : No

Text #3
ID                                       : 5
Format                                   : UTF-8
Codec ID                                 : S_TEXT/UTF8
Codec ID/Info                            : UTF-8 Plain Text
Duration                                 : 2 h 7 min
Bit rate                                 : 28 b/s
Count of elements                        : 1516
Stream size                              : 26.7 KiB (0%)
Language                                 : Chinese
Default                                  : No
Forced                                   : No

Text #4
ID                                       : 6
Format                                   : UTF-8
Codec ID                                 : S_TEXT/UTF8
Codec ID/Info                            : UTF-8 Plain Text
Duration                                 : 2 h 4 min
Bit rate                                 : 31 b/s
Count of elements                        : 1469
Stream size                              : 28.6 KiB (0%)
Language                                 : English
Default                                  : Yes
Forced                                   : Yes

Menu
00:00:00.000                             : :Chapter 01
00:10:12.333                             : :Chapter 02
00:27:32.750                             : :Chapter 03
00:36:06.583                             : :Chapter 04
00:48:43.750                             : :Chapter 05
01:00:38.875                             : :Chapter 06
01:11:35.833                             : :Chapter 07
01:21:07.833                             : :Chapter 08
01:28:45.167                             : :Chapter 09
01:41:21.833                             : :Chapter 10
01:53:24.417                             : :Chapter 11
02:03:06.708                             : :Chapter 12
02:09:55.375                             : :Chapter 13

459f84dfa16d2b36e293ebf358357b60.jpg





                                                                                                                                                                                                        
                                                                                                                                                                                                                                                                                                                                                                                                                                                                                                                                                                                                                                                                                                                                                                                                                                                        
63abd92d65b605ec037852c53f71cdf6.torrent (21.06 KB, 下载次数: 0)

回复

使用道具 举报

小黑屋|西西论坛

本网站所有资源来自网络,如无意中侵犯了您的权益,请发邮件至 [email protected],立即清除相关链接

GMT+8, 2021-12-3 16:10 , Processed in 0.118632 second(s), 17 queries .

Powered by Discuz! X3.2

© 2001-2013 Comsenz Inc.

快速回复 返回顶部 返回列表