西西论坛

 找回密码
 立即注册
搜索

百万美人鱼/出水芙蓉 Million.Dollar.Mermaid.1952.720p.BluRay.x264-ORBS 4.50GB ... ...

[复制链接]
admin 发表于 2021-11-22 17:41:29 | 显示全部楼层 |阅读模式
百万美人鱼/出水芙蓉 Million.Dollar.Mermaid.1952.720p.BluRay.x264-ORBS 4.50GB                                                                                                                                                                                                                                                                                                                                                                                                                                                                                                                                        -->
帖子完整标题:百万美人鱼/出水芙蓉 Million.Dollar.Mermaid.1952.720p.BluRay.x264-ORBS 4.50GB



f95880f5336000158c2e9be6f7d73b17.jpg



◎译  名 百万美人鱼/出水芙蓉
◎片  名 Million Dollar Mermaid
◎年  代 1952
◎产  地 美国
◎类  别 剧情 / 歌舞 / 传记
◎语  言 英语
◎上映日期 1952-12-04(美国)
◎豆瓣评分 8.4/10 from 3705 users
◎豆瓣链接 
◎片  长 115分钟
◎导  演 茂文·勒鲁瓦 Mervyn LeRoy
◎编  剧 埃弗里特·弗里曼 Everett Freeman
◎主  演 埃丝特·威廉斯 Esther Williams
       维克多·迈彻 Victor Mature
       沃尔特·皮金 Walter Pidgeon
       贝蒂·林恩 Betty Lynn
       米切尔·刘易斯 Mitchell Lewis
       Louise Lorimer Louise Lorimer
       杰克·洛马斯 Jack Lomas
       Clive Morgan Clive Morgan
       Maudie Prickett Maudie Prickett
       Eleanor Moore Eleanor Moore
       奎妮·伦纳德 Queenie Leonard
       Walter Merrill Walter Merrill
       Lock Martin Lock Martin
       Joan McKellen Joan McKellen
       克莱顿·黑尔 Creighton Hale
       James L. Kelly James L. Kelly
       Colin Kenny Colin Kenny
       Skelton Knaggs Skelton Knaggs
       罗温·休斯 Robin Hughes
       Alex Goudavich Alex Goudavich
       Patrick O'Moore Patrick O'Moore
       Regis Parton Regis Parton
       Dorothy Poynton Dorothy Poynton
       Gene Summers Gene Summers
       Fred Zendar Fred Zendar
       Patrick Whyte Patrick Whyte
       乔治·华莱士 George Wallace
       杰西·怀特 Jesse White
       伯特史蒂文斯 Bert Stevens
       罗斯玛丽·斯塔克 Rosemarie Stack
       Elizabeth Slifer Elizabeth Slifer
       迪恩史密斯 Dean Smith
       Cy Stevens Cy Stevens
       Arthur Tovey Arthur Tovey
       查尔兹·歇洛克 Charles Sherlock
       Rod Rogers Rod Rogers
       Gordon Richards Gordon Richards
       拉塞尔·桑德斯 Russell Saunders
       Frank Pharr Frank Pharr
       Mary Parker Mary Parker
       Harry Hines Harry Hines
       玛利亚·托齐夫 Maria Tallchief
       Jessie Arnold Jessie Arnold
       欧仁·博登 Eugene Borden
       Gail Bonney Gail Bonney
       Wilson Benge Wilson Benge
       詹姆斯·贝尔 James Bell
       Joan Barton Joan Barton
       威利斯·布鲁辛 Willis Bouchey
       Danny Casabian Danny Casabian
       Jimmy Aubrey Jimmy Aubrey
       弗兰克·米尔斯 Frank Mills
       保罗·费斯 Paul Frees
       大卫·布莱恩 David Brian
       唐娜·柯考兰 Donna Corcoran
       查尔斯瓦茨 Charles Watts
       爱德华·克拉克 Edward Clark
       Clarence Hennecke Clarence Hennecke
       Lillian Culver Lillian Culver
       乔治·博伊斯 George Boyce
       马歇尔·布拉德福德 Marshall Bradford
       霍华德·弗里曼 Howard Freeman
       威尔顿格拉芙 Wilton Graff
       戴布思·格里尔 Dabbs Greer
       Chester Hayes Chester Hayes
       Bobby Hale Bobby Hale
       Charles Heard Charles Heard
       约翰·汉密尔顿 John Hamilton
       亚瑟古尔德波特 Arthur Gould-Porter
       Herbert Deans Herbert Deans
       Al Ferguson Al Ferguson
       Leslie Denison Leslie Denison
       本尼·伯特 Benny Burt
       Adrienne D'Ambricourt Adrienne D'Ambricourt
       Carol Brewster Carol Brewster
       詹姆斯·弗莱文 James Flavin
       Vernon Downing Vernon Downing
       汤姆·狄龙 Tom Dillon
       帕特·弗莱厄蒂 Pat Flaherty
       弗兰克·弗格森 Frank Ferguson
       A. Cameron Grant A. Cameron Grant

◎标  签 美国 | 歌舞 | 喜剧 | 爱情 | 1952 | 音乐 | 老片 | 励志

◎简  介

  本片根据真人真事改编,开创了歌舞片全新的表演艺术形式——花样游泳。女主人公安妮·凯勒(埃丝特·威廉斯 Esther Williams饰)是一名普通音乐教师的女儿。本想用游泳来治疗从小患上的腿病,没想到练就了一身游泳绝技。因为父亲调任工作的关系,安妮随父亲前往伦敦。在船上遇到了江湖卖艺的詹姆斯·苏利文(维克多·迈彻 Victor Mature饰)。他想利用安妮穿着泳装的表演来宣传造势,不料却使安妮意外的成为了媒体焦点,名声大噪。随后安妮的水上芭蕾舞表演就一发不可收拾,轰动一时。
  
  本片荣获1953年奥斯卡(美国电影学院奖)最佳摄影(彩色片)提名。

◎获奖情况

  第25届奥斯卡金像奖 ?(1953)
  彩色片最佳摄影(提名) 乔治·J·福尔西
Video
ID                                       : 1
Format                                   : AVC
Format/Info                              : Advanced Video Codec
Format profile                           :
Format settings                          : CABAC / 11 Ref Frames
Format settings, CABAC                   : Yes
Format settings, Reference frames        : 11 frames
Codec ID                                 : V_MPEG4/ISO/AVC
Duration                                 : 1 h 49 min
Bit rate                                 : 5 550 kb/s
Width                                    : 986 pixels
Height                                   : 720 pixels
Display aspect ratio                     : 4:3
Frame rate mode                          : Constant
Frame rate                               : 23.976 (24000/1001/189150) FPS
Color space                              : YUV
Chroma subsampling                       : 4:2:0
Bit depth                                : 8 bits
Scan type                                : Progressive
Bits/(Pixel*Frame)                       : 0.326
Stream size                              : 4.26 GiB (95%)
Writing library                          : x264 core 164 r3065 ae03d92
Encoding settings                        : cabac=1 / ref=11 / deblock=1:-3:-3 / analyse=0x3:0x133 / me=umh / subme=10 / psy=1 / psy_rd=1.20:0.00 / mixed_ref=1 / me_range=24 / chroma_me=1 / trellis=2 / 8x8dct=1 / cqm=0 / deadzone=21,11 / fast_pskip=0 / chroma_qp_offset=-2 / threads=22 / lookahead_threads=3 / sliced_threads=0 / nr=0 / decimate=0 / interlaced=0 / bluray_compat=0 / constrained_intra=0 / bframes=8 / b_pyramid=2 / b_adapt=2 / b_bias=0 / direct=3 / weightb=1 / open_gop=0 / weightp=2 / keyint=250 / keyint_min=23 / scenecut=40 / intra_refresh=0 / rc_lookahead=60 / rc=crf / mbtree=1 / crf=19.0 / qcomp=0.60 / qpmin=0 / qpmax=69 / qpstep=4 / ip_ratio=1.40 / aq=3:0.90
Default                                  : Yes
Forced                                   : No
Color range                              : Limited
Matrix coefficients                      : BT.709

Audio
ID                                       : 2
Format                                   : FLAC
Format/Info                              : Free Lossless Audio Codec
Codec ID                                 : A_FLAC
Duration                                 : 1 h 49 min
Bit rate mode                            : Variable
Bit rate                                 : 289 kb/s
Channel(s)                               : 2 channels
Channel layout                           : L R
Sampling rate                            : 48.0 kHz
Frame rate                               : 11.719 FPS (4096 SPF)
Bit depth                                : 16 bits
Compression mode                         : Lossless
Stream size                              : 227 MiB (5%)
Writing library                          : libFLAC 1.3.3 (UTC 2019-08-04)
Language                                 : English
Default                                  : Yes
Forced                                   : No

Text
ID                                       : 3
Format                                   : PGS
Muxing mode                              : zlib
Codec ID                                 : S_HDMV/PGS
Codec ID/Info                            : Picture based subtitle format used on BDs/HD-DVDs
Duration                                 : 1 h 49 min
Bit rate                                 : 41.8 kb/s
Count of elements                        : 3770
Stream size                              : 32.8 MiB (1%)
Title                                    : SDH
Language                                 : English
Default                                  : No
Forced                                   : No

Menu
00:00:00.000                             : Chapter 01
00:01:52.654                             : Chapter 02
00:08:08.530                             : Chapter 03
00:11:42.535                             : Chapter 04
00:16:54.430                             : Chapter 05
00:20:56.881                             : Chapter 06
00:27:16.844                             : Chapter 07
00:32:42.878                             : Chapter 08
00:36:03.828                             : Chapter 09
00:40:51.282                             : Chapter 10
00:45:18.799                             : Chapter 11
00:48:57.977                             : Chapter 12
00:53:00.052                             : Chapter 13
00:57:07.424                             : Chapter 14
01:00:30.836                             : Chapter 15
01:03:31.558                             : Chapter 16
01:06:21.019                             : Chapter 17
01:12:17.667                             : Chapter 18
01:15:31.527                             : Chapter 19
01:19:18.087                             : Chapter 20
01:23:55.155                             : Chapter 21
01:27:29.995                             : Chapter 22
01:30:36.556                             : Chapter 23
01:33:20.261                             : Chapter 24
01:37:27.884                             : Chapter 25
01:43:00.716                             : Chapter 26
01:49:19.386                             : Chapter 27
01:49:54.213                             : Chapter 28

d18d762b5c2a5cd6d93fb76287c144f1.jpg





                                                                                                                                                                                                        
                                                                                                                                                                                                                                                                                                                                                                                                                                                                                                                                                                                                                                                                                                                                                                                                                                                        
e3da399c9dbc2702823aa575dfed5a40.torrent (23.25 KB, 下载次数: 0)

回复

使用道具 举报

小黑屋|西西论坛

本网站所有资源来自网络,如无意中侵犯了您的权益,请发邮件至 [email protected],立即清除相关链接

GMT+8, 2021-12-3 14:37 , Processed in 0.117688 second(s), 17 queries .

Powered by Discuz! X3.2

© 2001-2013 Comsenz Inc.

快速回复 返回顶部 返回列表