西西论坛

 找回密码
 立即注册
搜索

致命感应 Malignant.2021.1080p.BluRay.x264.DTS-MT 9.53GB

[复制链接]
admin 发表于 7 天前 | 显示全部楼层 |阅读模式
致命感应 Malignant.2021.1080p.BluRay.x264.DTS-MT 9.53GB                                                                                                                                                                                                                                                                                                                                                                                                                                                                                                                                        -->
帖子完整标题:致命感应 Malignant.2021.1080p.BluRay.x264.DTS-MT 9.53GB



41e4bafa4aeb3f56cc19339f87d10c87.jpg



◎译  名 致命感应/Malignant Man/恶性/恶毒/恶煞(港)/疾厄(台)/肿瘤/肿瘤侠
◎片  名 Malignant
◎年  代 2021
◎产  地 美国,中国大陆
◎类  别 悬疑 / 恐怖
◎语  言 英语
◎上映日期 2021-09-01(法国) / 2021-09-10(美国)
◎豆瓣评分 6.8/10 from 54436 users
◎豆瓣链接 
◎片  长 112分钟
◎导  演 温子仁 James Wan
◎编  剧 阿克拉·库珀 Akela Cooper / 温子仁 James Wan / 英格丽·比苏 Ingrid Bisu
◎主  演 安娜贝拉·沃丽丝 Annabelle Wallis
       麦蒂·哈森 Maddie Hasson
       吴宇卫 George Young
       米歇尔·沃特 Michole White
       麦肯娜·格瑞丝 Mckenna Grace
       珍·路易莎·凯利 Jean Louisa Kelly
       苏珊娜·汤姆森 Susanna Thompson
       杰克·阿贝尔 Jake Abel
       杰奎琳·麦根斯 Jacqueline McKenzie
       克里斯蒂安·克莱门松 Christian Clemenson
       梅塞德斯·科隆 Mercedes Colon
       英格丽·比苏 Ingrid Bisu
       乔恩·李·布罗迪 Jon Lee Brody
       保拉·马绍尔 Paula Marshall
       佐伊·贝尔 Zoe Bell
       娜塔莉·萨福兰 Natalia Safran
       迈克·门德兹 Mike Mendez
       雷·蔡斯 Ray Chase
       帕翠西娅·维拉奎兹 Patricia Velasquez
       麦迪逊·沃尔夫 Madison Wolfe
       安迪·比恩 Andy Bean
       帕特里克·考克斯 Patrick Cox
       蕾妮·戴蒙德 Renee Diamond
       玛丽娜·马泽帕 Marina Mazepa
       基诺·蒙特斯诺斯 Gino Montesinos
       阿米尔·阿布莱拉 Amir AboulEla
       肖特·丽奈特·约翰逊 Shaunte Lynette Johnson
       杰苏斯·特鲁希略 Jesus Trujillo
       鲁本·普拉 Ruben Pla
       丹·拉莫斯 Dan Ramos
       丽莎·卡塔拉 Lisa Catara

◎标  签 恐怖 | 惊悚 | 悬疑 | 美国 | 血腥 | 2021 | 动作 | 科幻

◎简  介

  麦迪森(安娜贝拉·沃丽丝 Annabelle Wallis 饰)在梦中不断看到恐怖谋杀案现场的幻象,而这些幻象实际上是真实发生过的凶案,她决定挖掘真相和自己的过去,却发现这一切与一位名叫“盖博瑞”的魔鬼有关。
Video
ID                                       : 1
Format                                   : AVC
Format/Info                              : Advanced Video Codec
Format profile                           :
Format settings                          : CABAC / 5 Ref Frames
Format settings, CABAC                   : Yes
Format settings, Reference frames        : 5 frames
Codec ID                                 : V_MPEG4/ISO/AVC
Duration                                 : 1 h 51 min
Bit rate                                 : 10.7 Mb/s
Width                                    : 1 920 pixels
Height                                   : 804 pixels
Display aspect ratio                     : 2.40:1
Frame rate mode                          : Constant
Frame rate                               : 23.976 (24000/1001/189150) FPS
Color space                              : YUV
Chroma subsampling                       : 4:2:0
Bit depth                                : 8 bits
Scan type                                : Progressive
Bits/(Pixel*Frame)                       : 0.290
Stream size                              : 8.36 GiB (88%)
Writing library                          : x264 core 157 r2938 2b00a84  Mod
Encoding settings                        : cabac=1 / ref=5 / deblock=1:-3:-3 / analyse=0x3:0x133 / me=umh / subme=10 / psy=1 / psy_rd=1.05:0.00 / mixed_ref=1 / me_range=32 / chroma_me=1 / trellis=2 / 8x8dct=1 / cqm=0 / deadzone=21,11 / fast_pskip=0 / chroma_qp_offset=-2 / threads=12 / lookahead_threads=2 / sliced_threads=0 / nr=0 / decimate=0 / interlaced=0 / bluray_compat=0 / constrained_intra=0 / bframes=8 / b_pyramid=2 / b_adapt=2 / b_bias=0 / direct=3 / weightb=1 / open_gop=0 / weightp=2 / keyint=250 / keyint_min=24 / scenecut=40 / intra_refresh=0 / rc_lookahead=250 / rc=crf / mbtree=0 / crf=16.8 / qcomp=0.60 / qpmin=0 / qpmax=69 / qpstep=4 / vbv_maxrate=62500 / vbv_bufsize=78125 / crf_max=0.0 / nal_hrd=none / filler=0 / ip_ratio=1.30 / pb_ratio=1.20 / aq=3:0.80
Language                                 : English
Default                                  : Yes
Forced                                   : No
Color range                              : Limited
Color primaries                          : BT.709
Matrix coefficients                      : BT.709

Audio
ID                                       : 2
Format                                   : DTS
Format/Info                              : Digital Theater Systems
Codec ID                                 : A_DTS
Duration                                 : 1 h 51 min
Bit rate mode                            : Constant
Bit rate                                 : 1 509 kb/s
Channel(s)                               : 6 channels
Channel layout                           : C L R Ls Rs LFE
Sampling rate                            : 48.0 kHz
Frame rate                               : 93.750 FPS (512 SPF)
Bit depth                                : 24 bits
Compression mode                         : Lossy
Stream size                              : 1.18 GiB (12%)
Language                                 : English
Default                                  : Yes
Forced                                   : No

Text #1
ID                                       : 3
Format                                   : UTF-8
Codec ID                                 : S_TEXT/UTF8
Codec ID/Info                            : UTF-8 Plain Text
Duration                                 : 1 h 45 min
Bit rate                                 : 34 b/s
Count of elements                        : 914
Stream size                              : 26.8 KiB (0%)
Language                                 : English
Default                                  : Yes
Forced                                   : No

Text #2
ID                                       : 4
Format                                   : UTF-8
Codec ID                                 : S_TEXT/UTF8
Codec ID/Info                            : UTF-8 Plain Text
Duration                                 : 1 h 47 min
Bit rate                                 : 45 b/s
Count of elements                        : 1371
Stream size                              : 35.5 KiB (0%)
Title                                    : SDH
Language                                 : English
Default                                  : No
Forced                                   : No

Menu
00:00:00.000                             : en:Chapter 01
00:06:11.204                             : en:Chapter 02
00:15:46.821                             : en:Chapter 03
00:25:23.564                             : en:Chapter 04
00:32:45.672                             : en:Chapter 05
00:42:28.838                             : en:Chapter 06
00:51:13.696                             : en:Chapter 07
00:59:30.275                             : en:Chapter 08
01:05:55.451                             : en:Chapter 09
01:14:59.078                             : en:Chapter 10
01:24:05.332                             : en:Chapter 11
01:33:50.750                             : en:Chapter 12
01:39:24.041                             : en:Chapter 13
01:47:28.067                             : en:Chapter 14

411c16ac8e23b5ce95c3e94d01682bee.png

[/url]774e849c96b3edae811f852e7fb6e05f.png

[/url]29d1981b794621eeb336598a9401a13e.png

[/url]


回复

使用道具 举报

小黑屋|西西论坛

本网站所有资源来自网络,如无意中侵犯了您的权益,请发邮件至 [email protected],立即清除相关链接

GMT+8, 2021-11-28 10:40 , Processed in 0.104310 second(s), 14 queries .

Powered by Discuz! X3.2

© 2001-2013 Comsenz Inc.

快速回复 返回顶部 返回列表