西西论坛

 找回密码
 立即注册
搜索

王公 Edge.of.the.World.2021.1080p.BluRay.x264-FREEMAN 13.74GB

[复制链接]
admin 发表于 7 天前 | 显示全部楼层 |阅读模式
王公 Edge.of.the.World.2021.1080p.BluRay.x264-FREEMAN 13.74GB                                                                                                                                                                                                                                                                                                                                                                                                                                                                                                                                        -->
帖子完整标题:王公 Edge.of.the.World.2021.1080p.BluRay.x264-FREEMAN 13.74GB



6f17c778eaec158aa0099bf80917bee9.jpg



◎译  名 王公/Edge of the World/White Rajah/白人拉者
◎片  名 Rajah
◎年  代 2021
◎产  地 美国,英国,中国大陆,马来西亚
◎类  别 冒险
◎语  言 马来语,阿拉伯语,英语
◎上映日期 2021-06-04(美国) / 2021-06-21(英国)
◎豆瓣评分 /10 from 0 users
◎豆瓣链接 
◎片  长 104分钟
◎编  剧 Rob Allyn Rob Allyn
◎主  演 乔纳森·莱斯·梅耶斯 Jonathan Rhys Meyers
       多米尼克·莫纳汉 Dominic Monaghan
       拉尔夫·伊内森 Ralph Ineson
       汉娜·纽 Hannah New
       何超仪 Josie Ho
       博朗·帕拉雷 Bront Palarae
       拉欣·拉萨利 Rahim Razali
       阿蒂卡?哈西霍兰 Atiqah Hasiholan

◎标  签 传记 | 历史 | 剧情 | 马来西亚 | 英国 | 2021 | 美国 | 乔纳森·莱斯·梅耶斯

◎简  介

  英国贵族探险家布鲁克逃离了丑闻和维多利亚时代社会的束缚,去探索19世纪40年代婆罗洲的野生动物。布鲁克爱上了这个热带天堂,与海盗和苏丹的敌人战斗,赢得了砂拉越王的王冠,在那里他统治着一个比英国还大的丛林王国。
Video
ID                                       : 1
Format                                   : AVC
Format/Info                              : Advanced Video Codec
Format profile                           :
Format settings                          : CABAC / 5 Ref Frames
Format settings, CABAC                   : Yes
Format settings, Reference frames        : 5 frames
Codec ID                                 : V_MPEG4/ISO/AVC
Duration                                 : 1 h 44 min
Bit rate                                 : 15.2 Mb/s
Width                                    : 1 920 pixels
Height                                   : 804 pixels
Display aspect ratio                     : 2.40:1
Frame rate mode                          : Constant
Frame rate                               : 23.976 (24000/1001/189150) FPS
Color space                              : YUV
Chroma subsampling                       : 4:2:0
Bit depth                                : 8 bits
Scan type                                : Progressive
Bits/(Pixel*Frame)                       : 0.411
Stream size                              : 11.1 GiB (81%)
Writing library                          : x264 core 164 r3075 66a5bc1
Encoding settings                        : cabac=1 / ref=5 / deblock=1:-3:-3 / analyse=0x3:0x133 / me=umh / subme=9 / psy=1 / psy_rd=1.00:0.00 / mixed_ref=1 / me_range=16 / chroma_me=1 / trellis=2 / 8x8dct=1 / cqm=0 / deadzone=21,11 / fast_pskip=0 / chroma_qp_offset=-2 / threads=24 / lookahead_threads=2 / sliced_threads=0 / nr=0 / decimate=1 / interlaced=0 / bluray_compat=0 / constrained_intra=0 / bframes=3 / b_pyramid=2 / b_adapt=2 / b_bias=0 / direct=3 / weightb=1 / open_gop=0 / weightp=2 / keyint=250 / keyint_min=23 / scenecut=40 / intra_refresh=0 / rc_lookahead=60 / rc=crf / mbtree=1 / crf=17.5 / qcomp=0.60 / qpmin=0 / qpmax=69 / qpstep=4 / ip_ratio=1.40 / aq=3:1.00
Default                                  : Yes
Forced                                   : No
Color range                              : Limited
Matrix coefficients                      : BT.709

Audio
ID                                       : 2
Format                                   : DTS XLL
Format/Info                              : Digital Theater Systems
Commercial name                          : DTS-HD Master Audio
Codec ID                                 : A_DTS
Duration                                 : 1 h 44 min
Bit rate mode                            : Variable
Bit rate                                 : 3 657 kb/s
Channel(s)                               : 6 channels
Channel layout                           : C L R Ls Rs LFE
Sampling rate                            : 48.0 kHz
Frame rate                               : 93.750 FPS (512 SPF)
Bit depth                                : 24 bits
Compression mode                         : Lossless
Stream size                              : 2.66 GiB (19%)
Language                                 : English
Default                                  : Yes
Forced                                   : No

Text #1
ID                                       : 3
Format                                   : PGS
Muxing mode                              : zlib
Codec ID                                 : S_HDMV/PGS
Codec ID/Info                            : Picture based subtitle format used on BDs/HD-DVDs
Duration                                 : 1 h 36 min
Bit rate                                 : 1 114 b/s
Count of elements                        : 158
Stream size                              : 789 KiB (0%)
Language                                 : German
Default                                  : No
Forced                                   : No

Text #2
ID                                       : 4
Format                                   : PGS
Muxing mode                              : zlib
Codec ID                                 : S_HDMV/PGS
Codec ID/Info                            : Picture based subtitle format used on BDs/HD-DVDs
Duration                                 : 1 h 36 min
Bit rate                                 : 15.8 kb/s
Count of elements                        : 2510
Stream size                              : 11.0 MiB (0%)
Language                                 : German
Default                                  : No
Forced                                   : No

Menu
00:00:00.000                             : en:00:00:00.000
00:10:29.254                             : en:00:10:29.254
00:17:00.144                             : en:00:17:00.144
00:25:56.889                             : en:00:25:56.889
00:33:44.481                             : en:00:33:44.481
00:44:06.018                             : en:00:44:06.018
00:51:49.398                             : en:00:51:49.398
01:00:10.732                             : en:01:00:10.732
01:09:20.698                             : en:01:09:20.698
01:16:22.870                             : en:01:16:22.870
01:26:40.112                             : en:01:26:40.112
01:36:16.813                             : en:01:36:16.813

734e8c0202f74863690af956352f802c.jpg





                                                                                                                                                                                                        
                                                                                                                                                                                                                                                                                                                                                                                                                                                                                                                                                                                                                                                                                                                                                                                                                                                        
d985f1f921dd694ad1354120b490a9fd.torrent (17.89 KB, 下载次数: 0)

回复

使用道具 举报

小黑屋|西西论坛

本网站所有资源来自网络,如无意中侵犯了您的权益,请发邮件至 [email protected],立即清除相关链接

GMT+8, 2021-11-28 10:33 , Processed in 0.120913 second(s), 17 queries .

Powered by Discuz! X3.2

© 2001-2013 Comsenz Inc.

快速回复 返回顶部 返回列表