西西论坛

 找回密码
 立即注册
搜索

众神花园中的爱与死 Amore.e.morte.nel.giardino.degli.dei.1972.ITALIAN.1080p.BluRa ...

[复制链接]
admin 发表于 7 天前 | 显示全部楼层 |阅读模式
众神花园中的爱与死 Amore.e.morte.nel.giardino.degli.dei.1972.ITALIAN.1080p.BluRay.x264.FL                                                                                                                                                                                                                                                                                                                                                                                                                                                                                                                                        -->
帖子完整标题:众神花园中的爱与死 Amore.e.morte.nel.giardino.degli.dei.1972.ITALIAN.1080p.BluRay.x264.FLAC.2.0-HANDJOB 6.04GB



e58f3e91e44e06b3db017888b182879c.jpg



◎译  名 众神花园中的爱与死
◎片  名 Amore e morte nel giardino degli dei
◎年  代 1972
◎产  地 意大利
◎类  别 剧情 / 奇幻
◎语  言 意大利语
◎上映日期 1972
◎豆瓣评分 /10 from 0 users
◎豆瓣链接 
◎片  长 90分钟
◎导  演 索罗·斯卡沃里尼 Sauro Scavolini / 艾丽卡·布兰克 Erika Blanc
◎编  剧 索罗·斯卡沃里尼 Sauro Scavolini
◎主  演 埃齐奥·马拉诺 Ezio Marano
       罗萨里奥·博雷利 Rosario Borelli
       维托里奥·度瑟 Vittorio Duse
       鄂尔克娅·德·桑蒂斯 Orchidea de Santis
       彼得·李·劳伦斯 Peter Lee Lawrence
       卡拉·曼奇尼 Carla Mancini
       艾丽卡·布兰克 Erika Blanc

◎标  签 意大利 | 意大利电影 | 奇幻 | 剧情 | 准备下

◎简  介

  暂无相关剧情介绍
Video
ID                                       : 1
Format                                   : AVC
Format/Info                              : Advanced Video Codec
Format profile                           :
Format settings                          : CABAC / 4 Ref Frames
Format settings, CABAC                   : Yes
Format settings, Reference frames        : 4 frames
Codec ID                                 : V_MPEG4/ISO/AVC
Duration                                 : 1 h 29 min
Bit rate                                 : 9 278 kb/s
Width                                    : 1 920 pixels
Height                                   : 1 032 pixels
Display aspect ratio                     : 1.85:1
Frame rate mode                          : Constant
Frame rate                               : 24.000 FPS
Color space                              : YUV
Chroma subsampling                       : 4:2:0
Bit depth                                : 8 bits
Scan type                                : Progressive
Bits/(Pixel*Frame)                       : 0.195
Stream size                              : 5.77 GiB (96%)
Writing library                          : x264 core 157 r2935 545de2f
Encoding settings                        : cabac=1 / ref=4 / deblock=1:-3:-3 / analyse=0x3:0x133 / me=umh / subme=10 / psy=1 / psy_rd=1.00:0.00 / mixed_ref=1 / me_range=32 / chroma_me=1 / trellis=2 / 8x8dct=1 / cqm=0 / deadzone=21,11 / fast_pskip=0 / chroma_qp_offset=-2 / threads=12 / lookahead_threads=3 / sliced_threads=0 / nr=0 / decimate=0 / interlaced=0 / bluray_compat=0 / constrained_intra=0 / bframes=16 / b_pyramid=2 / b_adapt=2 / b_bias=0 / direct=3 / weightb=1 / open_gop=0 / weightp=2 / keyint=240 / keyint_min=24 / scenecut=40 / intra_refresh=0 / rc_lookahead=60 / rc=crf / mbtree=0 / crf=22.2 / qcomp=0.60 / qpmin=0 / qpmax=69 / qpstep=4 / vbv_maxrate=62500 / vbv_bufsize=78125 / crf_max=0.0 / nal_hrd=none / filler=0 / ip_ratio=1.40 / pb_ratio=1.30 / aq=2:1.00
Default                                  : Yes
Forced                                   : No
Color range                              : Limited
Color primaries                          : BT.709
Transfer characteristics                 : BT.709
Matrix coefficients                      : BT.709

Audio
ID                                       : 2
Format                                   : FLAC
Format/Info                              : Free Lossless Audio Codec
Codec ID                                 : A_FLAC
Duration                                 : 1 h 29 min
Bit rate mode                            : Variable
Bit rate                                 : 419 kb/s
Channel(s)                               : 2 channels
Channel layout                           : L R
Sampling rate                            : 48.0 kHz
Frame rate                               : 11.719 FPS (4096 SPF)
Bit depth                                : 16 bits
Compression mode                         : Lossless
Stream size                              : 267 MiB (4%)
Writing library                          : libFLAC 1.2.1 (UTC 2007-09-17)
Language                                 : Italian
Default                                  : Yes
Forced                                   : No

Text #1
ID                                       : 3
Format                                   : UTF-8
Codec ID                                 : S_TEXT/UTF8
Codec ID/Info                            : UTF-8 Plain Text
Duration                                 : 1 h 24 min
Bit rate                                 : 26 b/s
Count of elements                        : 431
Stream size                              : 16.7 KiB (0%)
Language                                 : English
Default                                  : Yes
Forced                                   : No

Text #2
ID                                       : 4
Format                                   : PGS
Muxing mode                              : zlib
Codec ID                                 : S_HDMV/PGS
Codec ID/Info                            : Picture based subtitle format used on BDs/HD-DVDs
Duration                                 : 1 h 24 min
Bit rate                                 : 17.9 kb/s
Count of elements                        : 1152
Stream size                              : 10.8 MiB (0%)
Language                                 : French
Default                                  : No
Forced                                   : No

Menu
00:00:00.000                             : :Capítulo 01
00:10:02.167                             : :Capítulo 02
00:21:29.000                             : :Capítulo 03
00:30:18.250                             : :Capítulo 04
00:41:44.542                             : :Capítulo 05
00:50:55.458                             : :Capítulo 06
00:58:59.250                             : :Capítulo 07
01:08:49.500                             : :Capítulo 08
01:18:55.625                             : :Capítulo 09

a209a2a8f1c43e21a657702d2410810e.png

[/url]4dd377d5c28b244dcb69188dc0f4b9f0.png

[/url]08efc70d55b1cab16cd67c05d779e386.png

[/url]



                                                                                                                                                                                                        
                                                                                                                                                                                                                                                                                                                                                                                                                                                                                                                                                                                                                                                                                                                                                                                                                                                        
4933afb70b19bce939233810ce56ecb6.torrent (15.79 KB, 下载次数: 0)

回复

使用道具 举报

小黑屋|西西论坛

本网站所有资源来自网络,如无意中侵犯了您的权益,请发邮件至 [email protected],立即清除相关链接

GMT+8, 2021-11-28 10:18 , Processed in 0.082713 second(s), 17 queries .

Powered by Discuz! X3.2

© 2001-2013 Comsenz Inc.

快速回复 返回顶部 返回列表