西西论坛

 找回密码
 立即注册
搜索

痊愈 Get.Well.Soon.2014.FRENCH.1080p.BluRay.x264.DTS-SbR 9.92GB

[复制链接]
admin 发表于 7 天前 | 显示全部楼层 |阅读模式
痊愈 Get.Well.Soon.2014.FRENCH.1080p.BluRay.x264.DTS-SbR 9.92GB                                                                                                                                                                                                                                                                                                                                                                                                                                                                                                                                        -->
帖子完整标题:痊愈 Get.Well.Soon.2014.FRENCH.1080p.BluRay.x264.DTS-SbR 9.92GB



91788a99dbd79dc34e0fbaba7a76424f.jpg



◎译  名 痊愈
◎片  名 Bon rétablissement!
◎年  代 2014
◎产  地 法国
◎类  别 喜剧
◎语  言 法语
◎上映日期 2014-09-17
◎豆瓣评分 /10 from 0 users
◎豆瓣链接 
◎导  演 让·贝克 Jean Becker
◎编  剧 让·贝克 Jean Becker / 让-卢·达巴迪 Jean-Loup Dabadie
◎主  演 克劳迪娅·塔格博 Claudia Tagbo

◎标  签 法国 | 法国电影 | 剧情 | R让·贝克 | 法式幽默 | 无字幕 | 改编 | 喜剧

◎简  介

  Suite à un accident, Pierre, misanthrope au caractère bien trempé rêvant de silence et de solitude, se retrouve cloué au lit avec une jambe dans le platre. Il assiste alors impuissant à la valse quotidienne des médecins, infirmières et personnels hospitalier, puis de ses proches dont son frère Hervé. Au fil de rencontres inattendues, Pierre reconsidère certains a priori et pose sur les autres un regard différent. Et, contre toute attente, ce séjour à l'h?pital finit par ressembler à une renaissance...
Video
ID                                       : 1
Format                                   : AVC
Format/Info                              : Advanced Video Codec
Format profile                           :
Format settings                          : CABAC / 4 Ref Frames
Format settings, CABAC                   : Yes
Format settings, Reference frames        : 4 frames
Codec ID                                 : V_MPEG4/ISO/AVC
Duration                                 : 1 h 21 min
Bit rate                                 : 16.0 Mb/s
Width                                    : 1 920 pixels
Height                                   : 802 pixels
Display aspect ratio                     : 2.40:1
Frame rate mode                          : Constant
Frame rate                               : 24.000 FPS
Color space                              : YUV
Chroma subsampling                       : 4:2:0
Bit depth                                : 8 bits
Scan type                                : Progressive
Bits/(Pixel*Frame)                       : 0.433
Stream size                              : 9.06 GiB (91%)
Writing library                          : x264 core 164 r3065+62M b012ed0 devel [(8 & 10) X86_64]
Encoding settings                        : cabac=1 / ref=4 / deblock=1:-3:-3 / analyse=0x3:0x133 / me=umh / subme=11 / psy=1 / fade_compensate=0.00 / psy_rd=1.00:0.00 / mixed_ref=1 / me_range=32 / chroma_me=1 / trellis=2 / 8x8dct=1 / cqm=0 / deadzone=21,11 / fast_pskip=1 / chroma_qp_offset=-2 / threads=32 / lookahead_threads=6 / sliced_threads=0 / nr=0 / decimate=1 / interlaced=0 / bluray_compat=0 / constrained_intra=0 / fgo=0 / bframes=10 / b_pyramid=2 / b_adapt=2 / b_bias=0 / direct=3 / weightb=1 / open_gop=0 / weightp=2 / keyint=250 / keyint_min=24 / scenecut=40 / intra_refresh=0 / rc=crf / mbtree=0 / crf=16.5000 / qcomp=0.65 / qpmin=0:0:0 / qpmax=69:69:69 / qpstep=4 / ip_ratio=1.25 / pb_ratio=1.20 / aq=1:0.60 / aq-sensitivity=10.00 / aq-factor=1.00:1.00:1.00 / aq2=0 / aq3=0
Language                                 : French
Default                                  : Yes
Forced                                   : No

Audio
ID                                       : 2
Format                                   : DTS
Format/Info                              : Digital Theater Systems
Codec ID                                 : A_DTS
Duration                                 : 1 h 21 min
Bit rate mode                            : Constant
Bit rate                                 : 1 509 kb/s
Channel(s)                               : 6 channels
Channel layout                           : C L R Ls Rs LFE
Sampling rate                            : 48.0 kHz
Frame rate                               : 93.750 FPS (512 SPF)
Bit depth                                : 24 bits
Compression mode                         : Lossy
Stream size                              : 875 MiB (9%)
Language                                 : French
Default                                  : Yes
Forced                                   : No

Text #1
ID                                       : 3
Format                                   : ASS
Codec ID                                 : S_TEXT/ASS
Codec ID/Info                            : Advanced Sub Station Alpha
Duration                                 : 1 h 20 min
Bit rate                                 : 150 b/s
Count of elements                        : 1303
Compression mode                         : Lossless
Stream size                              : 88.3 KiB (0%)
Language                                 : Russian
Default                                  : No
Forced                                   : No

Text #2
ID                                       : 4
Format                                   : UTF-8
Codec ID                                 : S_TEXT/UTF8
Codec ID/Info                            : UTF-8 Plain Text
Duration                                 : 1 h 20 min
Bit rate                                 : 103 b/s
Count of elements                        : 1310
Stream size                              : 60.7 KiB (0%)
Language                                 : Russian
Default                                  : No
Forced                                   : No

Text #3
ID                                       : 5
Format                                   : ASS
Codec ID                                 : S_TEXT/ASS
Codec ID/Info                            : Advanced Sub Station Alpha
Duration                                 : 1 h 17 min
Bit rate                                 : 110 b/s
Count of elements                        : 1348
Compression mode                         : Lossless
Stream size                              : 62.6 KiB (0%)
Language                                 : English
Default                                  : No
Forced                                   : No

Text #4
ID                                       : 6
Format                                   : UTF-8
Codec ID                                 : S_TEXT/UTF8
Codec ID/Info                            : UTF-8 Plain Text
Duration                                 : 1 h 17 min
Bit rate                                 : 59 b/s
Count of elements                        : 1348
Stream size                              : 33.4 KiB (0%)
Language                                 : English
Default                                  : No
Forced                                   : No

Text #5
ID                                       : 7
Format                                   : ASS
Codec ID                                 : S_TEXT/ASS
Codec ID/Info                            : Advanced Sub Station Alpha
Duration                                 : 1 h 20 min
Bit rate                                 : 203 b/s
Count of elements                        : 1743
Compression mode                         : Lossless
Stream size                              : 121 KiB (0%)
Language                                 : French
Default                                  : No
Forced                                   : No

Text #6
ID                                       : 8
Format                                   : UTF-8
Codec ID                                 : S_TEXT/UTF8
Codec ID/Info                            : UTF-8 Plain Text
Duration                                 : 1 h 18 min
Bit rate                                 : 75 b/s
Count of elements                        : 1305
Stream size                              : 43.4 KiB (0%)
Title                                    : Eclair
Language                                 : French
Default                                  : No
Forced                                   : No

Text #7
ID                                       : 9
Format                                   : UTF-8
Codec ID                                 : S_TEXT/UTF8
Codec ID/Info                            : UTF-8 Plain Text
Duration                                 : 1 h 20 min
Bit rate                                 : 62 b/s
Count of elements                        : 1312
Stream size                              : 36.6 KiB (0%)
Language                                 : Dutch
Default                                  : No
Forced                                   : No

Text #8
ID                                       : 10
Format                                   : UTF-8
Codec ID                                 : S_TEXT/UTF8
Codec ID/Info                            : UTF-8 Plain Text
Duration                                 : 1 h 20 min
Bit rate                                 : 63 b/s
Count of elements                        : 1310
Stream size                              : 37.4 KiB (0%)
Language                                 : German
Default                                  : No
Forced                                   : No

Text #9
ID                                       : 11
Format                                   : UTF-8
Codec ID                                 : S_TEXT/UTF8
Codec ID/Info                            : UTF-8 Plain Text
Duration                                 : 1 h 16 min
Bit rate                                 : 62 b/s
Count of elements                        : 944
Stream size                              : 35.1 KiB (0%)
Language                                 : Romanian
Default                                  : No
Forced                                   : No

Menu
00:00:00.000                             : en:Chapter 01
00:08:40.583                             : en:Chapter 02
00:15:10.125                             : en:Chapter 03
00:22:46.958                             : en:Chapter 04
00:33:22.042                             : en:Chapter 05
00:39:49.875                             : en:Chapter 06
00:45:43.583                             : en:Chapter 07
00:53:43.250                             : en:Chapter 08
01:00:25.083                             : en:Chapter 09
01:07:27.833                             : en:Chapter 10
01:13:37.917                             : en:Chapter 11
01:17:15.958                             : en:Chapter 12

b5906f3426c72cba89949f535a8be0bd.png

[/url]21c2e4b7d9b8770b54545a639a08cf40.png

[/url]



                                                                                                                                                                                                        
                                                                                                                                                                                                                                                                                                                                                                                                                                                                                                                                                                                                                                                                                                                                                                                                                                                        
5798d67f18f0d8706035f7d82449b392.torrent (25.42 KB, 下载次数: 0)

回复

使用道具 举报

小黑屋|西西论坛

本网站所有资源来自网络,如无意中侵犯了您的权益,请发邮件至 [email protected],立即清除相关链接

GMT+8, 2021-11-28 10:06 , Processed in 0.131423 second(s), 17 queries .

Powered by Discuz! X3.2

© 2001-2013 Comsenz Inc.

快速回复 返回顶部 返回列表