西西论坛

 找回密码
 立即注册
搜索

600公斤纯金 In.Gold.We.Trust.2010.FRENCH.1080p.BluRay.x264.DTS-SbR 11.74GB

[复制链接]
admin 发表于 7 天前 | 显示全部楼层 |阅读模式
600公斤纯金 In.Gold.We.Trust.2010.FRENCH.1080p.BluRay.x264.DTS-SbR 11.74GB                                                                                                                                                                                                                                                                                                                                                                                                                                                                                                                                        -->
帖子完整标题:600公斤纯金 In.Gold.We.Trust.2010.FRENCH.1080p.BluRay.x264.DTS-SbR 11.74GB



b8d84a0cc286d94008e997b222c1bf05.jpg



◎译  名 600公斤纯金/In Gold We Trust
◎片  名 600 kg d'or pur
◎年  代 2010
◎产  地 法国
◎类  别 喜剧 / 冒险
◎语  言 法语
◎上映日期 2010-08-25(法国)
◎豆瓣评分 4.5/10 from 653 users
◎豆瓣链接 
◎片  长 100分钟
◎导  演 艾瑞克·贝斯纳 éric Besnard
◎编  剧 艾瑞克·贝斯纳 éric Besnard / 尼古拉斯·布赫里夫 Nicolas Boukhrief
◎主  演 克洛维斯·科尔尼亚克 Clovis Cornillac
       奥黛丽·达娜 Audrey Dana
       帕特里克·薛内斯 Patrick Chesnais
       克劳迪奥·桑塔玛利亚 Claudio Santamaria
       Bruno Solo Bruno Solo
       杰拉德·克雷恩 Gérard Klein
       休伯特·圣-麦卡里 Hubert Saint-Macary
       让-皮埃尔·马丹 Jean-Pierre Martins
       梅迪·内博 Mehdi Nebbou

◎标  签 法国 | 冒险 | 法国电影 | 犯罪 | 2010 | 电影 | 喜剧 | 600公斤纯金

◎简  介

  三抢匪加一个内应黑吃黑,抢了600公斤黄金用直升机运进现场时,因为另一名新加入的淘金女子要救走一名怀孕土着而延误,起飞时直升机被打中,飞到半途迫降后热带原始森林,企图以徒步方式运出时,被随后赶来的金矿组织沿途追杀的惊险暴力故事。
Video
ID                                       : 1
Format                                   : AVC
Format/Info                              : Advanced Video Codec
Format profile                           :
Format settings                          : CABAC / 4 Ref Frames
Format settings, CABAC                   : Yes
Format settings, Reference frames        : 4 frames
Codec ID                                 : V_MPEG4/ISO/AVC
Duration                                 : 1 h 39 min
Bit rate                                 : 15.4 Mb/s
Width                                    : 1 920 pixels
Height                                   : 816 pixels
Display aspect ratio                     : 2.35:1
Frame rate mode                          : Constant
Frame rate                               : 24.000 FPS
Color space                              : YUV
Chroma subsampling                       : 4:2:0
Bit depth                                : 8 bits
Scan type                                : Progressive
Bits/(Pixel*Frame)                       : 0.409
Stream size                              : 10.7 GiB (91%)
Writing library                          : x264 core 164 r3065+62M b012ed0 devel [(8 & 10) X86_64]
Encoding settings                        : cabac=1 / ref=4 / deblock=1:-3:-3 / analyse=0x3:0x133 / me=umh / subme=11 / psy=1 / fade_compensate=0.00 / psy_rd=1.00:0.00 / mixed_ref=1 / me_range=32 / chroma_me=1 / trellis=2 / 8x8dct=1 / cqm=0 / deadzone=21,11 / fast_pskip=1 / chroma_qp_offset=-2 / threads=32 / lookahead_threads=6 / sliced_threads=0 / nr=0 / decimate=1 / interlaced=0 / bluray_compat=0 / constrained_intra=0 / fgo=0 / bframes=10 / b_pyramid=2 / b_adapt=2 / b_bias=0 / direct=3 / weightb=1 / open_gop=0 / weightp=2 / keyint=250 / keyint_min=24 / scenecut=40 / intra_refresh=0 / rc=crf / mbtree=0 / crf=18.5000 / qcomp=0.65 / qpmin=0:0:0 / qpmax=69:69:69 / qpstep=4 / ip_ratio=1.25 / pb_ratio=1.20 / aq=1:0.60 / aq-sensitivity=10.00 / aq-factor=1.00:1.00:1.00 / aq2=0 / aq3=0
Language                                 : French
Default                                  : Yes
Forced                                   : No

Audio
ID                                       : 2
Format                                   : DTS
Format/Info                              : Digital Theater Systems
Codec ID                                 : A_DTS
Duration                                 : 1 h 39 min
Bit rate mode                            : Constant
Bit rate                                 : 1 509 kb/s
Channel(s)                               : 6 channels
Channel layout                           : C L R Ls Rs LFE
Sampling rate                            : 48.0 kHz
Frame rate                               : 93.750 FPS (512 SPF)
Bit depth                                : 16 bits
Compression mode                         : Lossy
Stream size                              : 1.05 GiB (9%)
Language                                 : French
Default                                  : Yes
Forced                                   : No

Text #1
ID                                       : 3
Format                                   : ASS
Codec ID                                 : S_TEXT/ASS
Codec ID/Info                            : Advanced Sub Station Alpha
Duration                                 : 1 h 28 min
Bit rate                                 : 64 b/s
Count of elements                        : 549
Compression mode                         : Lossless
Stream size                              : 42.2 KiB (0%)
Language                                 : Russian
Default                                  : No
Forced                                   : No

Text #2
ID                                       : 4
Format                                   : UTF-8
Codec ID                                 : S_TEXT/UTF8
Codec ID/Info                            : UTF-8 Plain Text
Duration                                 : 1 h 28 min
Bit rate                                 : 46 b/s
Count of elements                        : 549
Stream size                              : 30.5 KiB (0%)
Language                                 : Russian
Default                                  : No
Forced                                   : No

Text #3
ID                                       : 5
Format                                   : ASS
Codec ID                                 : S_TEXT/ASS
Codec ID/Info                            : Advanced Sub Station Alpha
Duration                                 : 1 h 38 min
Bit rate                                 : 35 b/s
Count of elements                        : 574
Compression mode                         : Lossless
Stream size                              : 25.6 KiB (0%)
Language                                 : English
Default                                  : No
Forced                                   : No

Text #4
ID                                       : 6
Format                                   : UTF-8
Codec ID                                 : S_TEXT/UTF8
Codec ID/Info                            : UTF-8 Plain Text
Duration                                 : 1 h 38 min
Bit rate                                 : 18 b/s
Count of elements                        : 574
Stream size                              : 13.4 KiB (0%)
Language                                 : English
Default                                  : No
Forced                                   : No

Text #5
ID                                       : 7
Format                                   : UTF-8
Codec ID                                 : S_TEXT/UTF8
Codec ID/Info                            : UTF-8 Plain Text
Duration                                 : 1 h 6 min
Bit rate                                 : 0 b/s
Count of elements                        : 9
Stream size                              : 310 Bytes (0%)
Title                                    : Forced
Language                                 : French
Default                                  : No
Forced                                   : No

Text #6
ID                                       : 8
Format                                   : ASS
Codec ID                                 : S_TEXT/ASS
Codec ID/Info                            : Advanced Sub Station Alpha
Duration                                 : 1 h 35 min
Bit rate                                 : 106 b/s
Count of elements                        : 1022
Compression mode                         : Lossless
Stream size                              : 75.1 KiB (0%)
Language                                 : French
Default                                  : No
Forced                                   : No

Menu
00:00:00.000                             : en:Chapter 01
00:09:02.583                             : en:Chapter 02
00:16:10.583                             : en:Chapter 03
00:22:11.792                             : en:Chapter 04
00:34:26.958                             : en:Chapter 05
00:41:31.917                             : en:Chapter 06
00:46:33.750                             : en:Chapter 07
00:55:07.000                             : en:Chapter 08
01:02:11.458                             : en:Chapter 09
01:12:23.875                             : en:Chapter 10
01:19:52.208                             : en:Chapter 11
01:35:42.000                             : en:Chapter 12

2364a8d4943a9523f66ebe843a67c1a2.png

[/url]d330f4022899bd478c225201c8f013a7.png

[/url]



                                                                                                                                                                                                        
                                                                                                                                                                                                                                                                                                                                                                                                                                                                                                                                                                                                                                                                                                                                                                                                                                                        
55e010a8438e949a815fb33f2120dfd3.torrent (15.31 KB, 下载次数: 0)

回复

使用道具 举报

小黑屋|西西论坛

本网站所有资源来自网络,如无意中侵犯了您的权益,请发邮件至 [email protected],立即清除相关链接

GMT+8, 2021-11-28 10:33 , Processed in 0.141559 second(s), 17 queries .

Powered by Discuz! X3.2

© 2001-2013 Comsenz Inc.

快速回复 返回顶部 返回列表