西西论坛

 找回密码
 立即注册
搜索

梦想的课程 Lessons.of.a.Dream.2011.GERMAN.1080p.BluRay.x264.DD5.1-HANDJOB 9.88GB ...

[复制链接]
admin 发表于 7 天前 | 显示全部楼层 |阅读模式
梦想的课程 Lessons.of.a.Dream.2011.GERMAN.1080p.BluRay.x264.DD5.1-HANDJOB 9.88GB                                                                                                                                                                                                                                                                                                                                                                                                                                                                                                                                        -->
帖子完整标题:梦想的课程 Lessons.of.a.Dream.2011.GERMAN.1080p.BluRay.x264.DD5.1-HANDJOB 9.88GB



bfdf31fd12896c748540c3fd274211e1.jpg



◎译  名 梦想的课程/Lessons of a Dream/伟大梦想/圆梦足球
◎片  名 Der ganz gro?e Traum
◎年  代 2011
◎产  地 德国
◎类  别 剧情 / 运动
◎语  言 德语
◎上映日期 2011-02-24(德国)
◎豆瓣评分 7.8/10 from 401 users
◎豆瓣链接 
◎片  长 113分钟
◎导  演 塞巴斯蒂安·格罗布勒 Sebastian Grobler
◎编  剧 塞巴斯蒂安·格罗布勒 Sebastian Grobler / 约翰娜·施图特曼 Johanna Stuttmann
◎主  演 丹尼尔·布鲁赫 Daniel Brühl
       布尔格哈特·克劳斯纳 Burghart Klau?ner
       托马斯·蒂梅 Thomas Thieme
       尤斯图斯·冯·多赫纳尼 Justus von Dohnányi
       Jürgen Tonkel Jürgen Tonkel
       文森特·凯斯纳 Vincent Kastner
       米兰·佩舍尔 Milan Peschel

◎标  签 德国 | 足球 | 德国电影 | DanielBrühl | 励志 | 运动 | 教育 | 剧情

◎简  介

  故事发生在1874年,冯(伯格哈特?克莱斯纳 Burghart Klau?ner 饰)是一名学校的校长,野心勃勃的他一心想要在学校里进行一番天翻地覆的改革,于是他决定引进英语课,这让这所学校成为了德国第一所拥有英语课程的学校。就这样,英语老师科赫(丹尼尔?布鲁赫 Daniel Brühl 饰)来到了学校任教。
  
  从一开始起,科赫的教学计划就面临着重重的阻碍,无论是学生还是家长,他们都对英国充满了偏见。最终,科赫决定通过足球这项运动来帮助学生们更加了解英国,虽然他的计划收获了颇丰的成果,但同时也惹恼了一些利益相关者。有一些位高权重的人,他们开始想要科赫离开这所学校。

◎获奖情况

  第61届德国电影奖 ?(2011)
  最佳影片金奖(提名) AnatolNitschke?/?RaoulB.Reinert
  最佳摄影(提名) MartinLanger
  最佳服装设计(提名) MonikaJacobs
Video
ID                                       : 1
Format                                   : AVC
Format/Info                              : Advanced Video Codec
Format profile                           :
Format settings                          : CABAC / 5 Ref Frames
Format settings, CABAC                   : Yes
Format settings, Reference frames        : 5 frames
Codec ID                                 : V_MPEG4/ISO/AVC
Duration                                 : 1 h 53 min
Bit rate                                 : 11.8 Mb/s
Width                                    : 1 920 pixels
Height                                   : 816 pixels
Display aspect ratio                     : 2.35:1
Frame rate mode                          : Constant
Frame rate                               : 24.000 FPS
Color space                              : YUV
Chroma subsampling                       : 4:2:0
Bit depth                                : 8 bits
Scan type                                : Progressive
Bits/(Pixel*Frame)                       : 0.314
Stream size                              : 9.36 GiB (95%)
Writing library                          : x264 core 163 r3059 b684ebe0
Encoding settings                        : cabac=1 / ref=5 / deblock=1:-3:-3 / analyse=0x3:0x133 / me=umh / subme=10 / psy=1 / psy_rd=1.00:0.00 / mixed_ref=1 / me_range=32 / chroma_me=1 / trellis=2 / 8x8dct=1 / cqm=0 / deadzone=21,11 / fast_pskip=0 / chroma_qp_offset=-2 / threads=25 / lookahead_threads=6 / sliced_threads=0 / nr=0 / decimate=0 / interlaced=0 / bluray_compat=0 / constrained_intra=0 / bframes=16 / b_pyramid=2 / b_adapt=2 / b_bias=0 / direct=3 / weightb=1 / open_gop=0 / weightp=2 / keyint=240 / keyint_min=24 / scenecut=40 / intra_refresh=0 / rc_lookahead=60 / rc=crf / mbtree=0 / crf=19.2 / qcomp=0.60 / qpmin=0 / qpmax=69 / qpstep=4 / vbv_maxrate=62500 / vbv_bufsize=78125 / crf_max=0.0 / nal_hrd=none / filler=0 / ip_ratio=1.40 / pb_ratio=1.30 / aq=2:1.00
Default                                  : Yes
Forced                                   : No
Color range                              : Limited
Color primaries                          : BT.709
Transfer characteristics                 : BT.709
Matrix coefficients                      : BT.709

Audio
ID                                       : 2
Format                                   : AC-3
Format/Info                              : Audio Coding 3
Commercial name                          : Dolby Digital
Codec ID                                 : A_AC3
Duration                                 : 1 h 53 min
Bit rate mode                            : Constant
Bit rate                                 : 640 kb/s
Channel(s)                               : 6 channels
Channel layout                           : L R C LFE Ls Rs
Sampling rate                            : 48.0 kHz
Frame rate                               : 31.250 FPS (1536 SPF)
Compression mode                         : Lossy
Stream size                              : 519 MiB (5%)
Language                                 : German
Service kind                             : Complete Main
Default                                  : Yes
Forced                                   : No

Text #1
ID                                       : 3
Format                                   : UTF-8
Codec ID                                 : S_TEXT/UTF8
Codec ID/Info                            : UTF-8 Plain Text
Duration                                 : 1 h 46 min
Bit rate                                 : 46 b/s
Count of elements                        : 1096
Stream size                              : 36.3 KiB (0%)
Language                                 : English
Default                                  : Yes
Forced                                   : No

Text #2
ID                                       : 4
Format                                   : PGS
Muxing mode                              : zlib
Codec ID                                 : S_HDMV/PGS
Codec ID/Info                            : Picture based subtitle format used on BDs/HD-DVDs
Duration                                 : 1 h 52 min
Bit rate                                 : 38.3 kb/s
Count of elements                        : 2457
Stream size                              : 30.8 MiB (0%)
Language                                 : German
Default                                  : No
Forced                                   : No

Menu
00:00:00.000                             : :Chapter 1
00:12:06.708                             : :Chapter 2
00:21:22.708                             : :Chapter 3
00:30:05.375                             : :Chapter 4
00:42:04.625                             : :Chapter 5
00:50:21.250                             : :Chapter 6
01:01:00.583                             : :Chapter 7
01:12:00.167                             : :Chapter 8
01:23:34.708                             : :Chapter 9
01:33:37.750                             : :Chapter 10
01:40:34.917                             : :Chapter 11
01:46:44.500                             : :Chapter 12

ac6a96fc993609c548debbda0b65567a.png

[/url]cec18acdb38db7b5f08c50239bd80b0f.png

[/url]



                                                                                                                                                                                                        
                                                                                                                                                                                                                                                                                                                                                                                                                                                                                                                                                                                                                                                                                                                                                                                                                                                        
a624a8b04ab2f752ab22528bdf761eeb.torrent (25.36 KB, 下载次数: 0)

回复

使用道具 举报

小黑屋|西西论坛

本网站所有资源来自网络,如无意中侵犯了您的权益,请发邮件至 [email protected],立即清除相关链接

GMT+8, 2021-11-28 09:44 , Processed in 0.133545 second(s), 17 queries .

Powered by Discuz! X3.2

© 2001-2013 Comsenz Inc.

快速回复 返回顶部 返回列表