西西论坛

 找回密码
 立即注册
搜索

富貴開心鬼 Lost.Souls.1989.CHINESE.1080p.BluRay.x264.FLAC.2.0-HANDJOB 8.00GB ... ...

[复制链接]
admin 发表于 7 天前 | 显示全部楼层 |阅读模式
富貴開心鬼 Lost.Souls.1989.CHINESE.1080p.BluRay.x264.FLAC.2.0-HANDJOB 8.00GB                                                                                                                                                                                                                                                                                                                                                                                                                                                                                                                                        -->
帖子完整标题:富貴開心鬼 Lost.Souls.1989.CHINESE.1080p.BluRay.x264.FLAC.2.0-HANDJOB 8.00GB



cb4fca71fb2225845a396dd5c1f754ef.jpg



◎译  名 富贵开心鬼/Lost Souls/暂停继续呼吸(台)
◎片  名 富貴開心鬼
◎年  代 1989
◎产  地 中国香港
◎类  别 剧情 / 喜剧 / 惊悚
◎语  言 粤语
◎上映日期 1989-08-09(中国香港)
◎豆瓣评分 6.8/10 from 6426 users
◎豆瓣链接 
◎片  长 91分钟
◎导  演 黎大炜 David Lai
◎编  剧 黄炳耀 Barry Wong
◎主  演 董骠 Bill Tung
       沈殿霞 Lydia Shum
       吴大维 David Wu
       关佩琳 Pauline Kwan
       陈淑兰 Sheila Chan
       吴启华 Lawrence Ng
       刘允 Yue Tau Wan
       张荣祥 Cheung Wing-Cheung
       叶子楣 Amy Yip
       陈果 Fruit Chan
       吕秀菱 Hsiu-ling Lu
       午马 Wu Ma
       车保罗 Paul Che
       卢冠廷 Lowell Lo

◎标  签 喜剧 | 香港 | 香港电影 | 沈殿霞 | 董骠 | 富贵开心鬼 | 搞笑 | 1989

◎简  介

  凌浩西(董彪 饰)和老婆(沈殿霞 饰)育有两个漂亮的女儿,生活美满幸福。不过凌母一心移民加拿大,为此不惜逼小女儿玲玲(陈淑兰 饰)甩掉一片痴心的男朋友包有路(吴大维 饰)。得知真相的包有路气愤离开,而当晚凌家四口人也因煤气中毒死亡。
  
  他们的灵魂来到阴间,移民之心不死,却被告知须在加拿大修好坟墓方好动身。然前期筹备移民,钱财散尽。凌家人获得特许,暂时还魂赚钱。蒙在鼓里的包有路帮助他们出主意,让凌父充当警方线人,凌母当按摩师、大女儿嘉嘉(吕秀菱 饰)。一家人全部动员起来,眼看最后期限临近……
Video
ID                                       : 1
Format                                   : AVC
Format/Info                              : Advanced Video Codec
Format profile                           :
Format settings                          : CABAC / 4 Ref Frames
Format settings, CABAC                   : Yes
Format settings, Reference frames        : 4 frames
Codec ID                                 : V_MPEG4/ISO/AVC
Duration                                 : 1 h 32 min
Bit rate                                 : 12.0 Mb/s
Width                                    : 1 916 pixels
Height                                   : 1 080 pixels
Display aspect ratio                     : 16:9
Frame rate mode                          : Constant
Frame rate                               : 23.976 (24000/1001/189150) FPS
Color space                              : YUV
Chroma subsampling                       : 4:2:0
Bit depth                                : 8 bits
Scan type                                : Progressive
Bits/(Pixel*Frame)                       : 0.241
Stream size                              : 7.75 GiB (97%)
Writing library                          : x264 core 163 r3059 b684ebe0
Encoding settings                        : cabac=1 / ref=4 / deblock=1:-3:-3 / analyse=0x3:0x133 / me=umh / subme=10 / psy=1 / psy_rd=1.00:0.00 / mixed_ref=1 / me_range=32 / chroma_me=1 / trellis=2 / 8x8dct=1 / cqm=0 / deadzone=21,11 / fast_pskip=0 / chroma_qp_offset=-2 / threads=34 / lookahead_threads=8 / sliced_threads=0 / nr=0 / decimate=0 / interlaced=0 / bluray_compat=0 / constrained_intra=0 / bframes=16 / b_pyramid=2 / b_adapt=2 / b_bias=0 / direct=3 / weightb=1 / open_gop=0 / weightp=2 / keyint=240 / keyint_min=24 / scenecut=40 / intra_refresh=0 / rc_lookahead=60 / rc=crf / mbtree=0 / crf=22.5 / qcomp=0.60 / qpmin=0 / qpmax=69 / qpstep=4 / vbv_maxrate=62500 / vbv_bufsize=78125 / crf_max=0.0 / nal_hrd=none / filler=0 / ip_ratio=1.40 / pb_ratio=1.30 / aq=2:1.00
Default                                  : Yes
Forced                                   : No
Color range                              : Limited
Color primaries                          : BT.709
Transfer characteristics                 : BT.709
Matrix coefficients                      : BT.709

Audio
ID                                       : 2
Format                                   : FLAC
Format/Info                              : Free Lossless Audio Codec
Codec ID                                 : A_FLAC
Duration                                 : 1 h 32 min
Bit rate mode                            : Variable
Bit rate                                 : 354 kb/s
Channel(s)                               : 2 channels
Channel layout                           : L R
Sampling rate                            : 48.0 kHz
Frame rate                               : 11.719 FPS (4096 SPF)
Bit depth                                : 16 bits
Compression mode                         : Lossless
Stream size                              : 235 MiB (3%)
Title                                    : Cantonese
Writing library                          : libFLAC 1.2.1 (UTC 2007-09-17)
Language                                 : Chinese
Default                                  : Yes
Forced                                   : No

Text #1
ID                                       : 3
Format                                   : UTF-8
Codec ID                                 : S_TEXT/UTF8
Codec ID/Info                            : UTF-8 Plain Text
Duration                                 : 1 h 27 min
Bit rate                                 : 58 b/s
Count of elements                        : 1152
Stream size                              : 37.7 KiB (0%)
Language                                 : English
Default                                  : Yes
Forced                                   : No

Text #2
ID                                       : 4
Format                                   : PGS
Muxing mode                              : zlib
Codec ID                                 : S_HDMV/PGS
Codec ID/Info                            : Picture based subtitle format used on BDs/HD-DVDs
Duration                                 : 1 h 28 min
Bit rate                                 : 41.7 kb/s
Count of elements                        : 1732
Stream size                              : 26.5 MiB (0%)
Title                                    : Chinese Simplified
Language                                 : Chinese
Default                                  : No
Forced                                   : No

Text #3
ID                                       : 5
Format                                   : PGS
Muxing mode                              : zlib
Codec ID                                 : S_HDMV/PGS
Codec ID/Info                            : Picture based subtitle format used on BDs/HD-DVDs
Duration                                 : 1 h 27 min
Bit rate                                 : 43.0 kb/s
Count of elements                        : 1730
Stream size                              : 27.0 MiB (0%)
Title                                    : Chinese Traditional
Language                                 : Chinese
Default                                  : No
Forced                                   : No

Menu
00:00:00.000                             : :Chapter 1
00:05:59.150                             : :Chapter 2
00:15:17.959                             : :Chapter 3
00:23:58.020                             : :Chapter 4
00:29:58.839                             : :Chapter 5
00:39:03.049                             : :Chapter 6
00:44:41.053                             : :Chapter 7
00:55:11.350                             : :Chapter 8
01:00:31.962                             : :Chapter 9
01:08:35.987                             : :Chapter 10
01:18:25.868                             : :Chapter 11
01:23:12.404                             : :Chapter 12

612eb00f69bfeb57078e7ecf17bc2507.png

[/url]ef15f3df6ac9776bbbf73b60284aa3f6.png

[/url]faa41a7a32a4963ff0be1fcc43f40dd8.png

[/url]



                                                                                                                                                                                                        
                                                                                                                                                                                                                                                                                                                                                                                                                                                                                                                                                                                                                                                                                                                                                                                                                                                        
b5b6c649ac0b5c9a7abcf29272c466bc.torrent (20.64 KB, 下载次数: 0)

回复

使用道具 举报

小黑屋|西西论坛

本网站所有资源来自网络,如无意中侵犯了您的权益,请发邮件至 [email protected],立即清除相关链接

GMT+8, 2021-11-28 11:12 , Processed in 0.108193 second(s), 17 queries .

Powered by Discuz! X3.2

© 2001-2013 Comsenz Inc.

快速回复 返回顶部 返回列表