西西论坛

 找回密码
 立即注册
搜索

布朗宁版本/勃朗宁版本 The.Browning.Version.1994.1080p.BluRay.x264.DDP5.1-PTer 12 ...

[复制链接]
admin 发表于 7 天前 | 显示全部楼层 |阅读模式
布朗宁版本/勃朗宁版本 The.Browning.Version.1994.1080p.BluRay.x264.DDP5.1-PTer 12.94GB                                                                                                                                                                                                                                                                                                                                                                                                                                                                                                                                        -->
帖子完整标题:布朗宁版本/勃朗宁版本 The.Browning.Version.1994.1080p.BluRay.x264.DDP5.1-PTer 12.94GB



323db5ea82d1137292ef817a6400adb9.jpg



◎译  名 布朗宁版本/勃朗宁版本/白朗宁版本
◎片  名 The Browning Version
◎年  代 1994
◎产  地 英国
◎类  别 剧情
◎语  言 英语
◎上映日期 1994-06-08
◎豆瓣评分 8.2/10 from 456 users
◎豆瓣链接 
◎片  长 97 分钟
◎导  演 迈克·菲吉斯 Mike Figgis
◎编  剧 罗纳德·哈伍德 Ronald Harwood / 泰伦斯·拉提根 Terence Rattigan
◎主  演 阿尔伯特·芬尼 Albert Finney
       格列塔·斯卡奇 Greta Scacchi
       马修·莫迪恩 Matthew Modine
       吉姆·斯特吉斯 Jim Sturgess
       朱利安·山德斯 Julian Sands
       玛瑞亚·达波 Maryam d'Abo
       迈克尔·刚本 Michael Gambon
       奥列佛·米尔本 Oliver Milburn
       希思科特·威廉姆斯 Heathcote Williams
       Jeff Nuttall Jeff Nuttall
       Amanda Kelly Amanda Kelly
       乔治·哈里斯 George Harris
       本·西尔弗斯通 Ben Silverstone

◎标  签 英国 | 英国电影 | 1994 | 剧情 | 布朗宁版本 | 电影 | 情感 | 教育

◎简  介

  故事发生在一所英国学校之中,古典文学课教师哈里斯(阿尔伯特·芬尼 Albert Finney 饰)即将迎来自己的退休日。塔普洛(本·西尔弗斯通 Ben Silverstone 饰)是哈里斯非常喜欢的学生,然而,塔普洛却告诉哈里斯,自己决定放弃古典文学,转而学习理科。
  
  之后,校长找到了哈里斯,告诉了他一个噩耗,那就是学校并不准备付给他退休金,当哈里斯的妻子劳拉(格列塔·斯卡奇 Greta Scacchi 饰)得知了这一消息后,和丈夫之间爆发了一场激烈的争吵。实际上,劳拉早已经背叛了哈里斯,她和名叫弗兰克(马修·莫迪恩 Matthew Modine 饰)的男子保持着不正当的关系。退休典礼即将临近,哈里斯的生活似乎再也回不去从前了。

◎获奖情况

  第47届戛纳电影节 ?(1994)
  主竞赛单元金棕榈奖(提名) 迈克·菲吉斯
  
  第48届英国电影学院奖 ?(1995)
  电影奖最佳改编剧本(提名) 罗纳德·哈伍德
Video
ID                                       : 1
Format                                   : AVC
Format/Info                              : Advanced Video Codec
Format profile                           :
Format settings                          : CABAC / 5 Ref Frames
Format settings, CABAC                   : Yes
Format settings, Reference frames        : 5 frames
Codec ID                                 : V_MPEG4/ISO/AVC
Duration                                 : 1 h 37 min
Bit rate                                 : 18.0 Mb/s
Width                                    : 1 920 pixels
Height                                   : 804 pixels
Display aspect ratio                     : 2.40:1
Frame rate mode                          : Constant
Frame rate                               : 23.976 (24000/1001/189150) FPS
Color space                              : YUV
Chroma subsampling                       : 4:2:0
Bit depth                                : 8 bits
Scan type                                : Progressive
Bits/(Pixel*Frame)                       : 0.488
Stream size                              : 12.2 GiB (95%)
Writing library                          : x264 core 164 r3065 ae03d92
Encoding settings                        : cabac=1 / ref=5 / deblock=1:-3:-3 / analyse=0x3:0x133 / me=umh / subme=11 / psy=1 / psy_rd=1.02:0.00 / mixed_ref=1 / me_range=32 / chroma_me=1 / trellis=2 / 8x8dct=1 / cqm=0 / deadzone=21,11 / fast_pskip=0 / chroma_qp_offset=-2 / threads=18 / lookahead_threads=4 / sliced_threads=0 / nr=0 / decimate=0 / interlaced=0 / bluray_compat=0 / constrained_intra=0 / bframes=15 / b_pyramid=2 / b_adapt=2 / b_bias=0 / direct=3 / weightb=1 / open_gop=0 / weightp=2 / keyint=250 / keyint_min=23 / scenecut=40 / intra_refresh=0 / rc_lookahead=250 / rc=crf / mbtree=0 / crf=17.5 / qcomp=0.60 / qpmin=0 / qpmax=69 / qpstep=4 / vbv_maxrate=62500 / vbv_bufsize=78125 / crf_max=0.0 / nal_hrd=none / filler=0 / ip_ratio=1.30 / pb_ratio=1.20 / aq=3:0.80
Default                                  : Yes
Forced                                   : No
Color range                              : Limited
Color primaries                          : BT.709
Matrix coefficients                      : BT.709

Audio
ID                                       : 2
Format                                   : E-AC-3
Format/Info                              : Enhanced AC-3
Commercial name                          : Dolby Digital Plus
Codec ID                                 : A_EAC3
Duration                                 : 1 h 37 min
Bit rate mode                            : Constant
Bit rate                                 : 1 024 kb/s
Channel(s)                               : 6 channels
Channel layout                           : L R C LFE Ls Rs
Sampling rate                            : 48.0 kHz
Frame rate                               : 31.250 FPS (1536 SPF)
Compression mode                         : Lossy
Stream size                              : 711 MiB (5%)
Title                                    : English
Language                                 : English
Service kind                             : Complete Main
Default                                  : Yes
Forced                                   : No

Text #1
ID                                       : 3
Format                                   : UTF-8
Codec ID                                 : S_TEXT/UTF8
Codec ID/Info                            : UTF-8 Plain Text
Duration                                 : 1 h 32 min
Bit rate                                 : 118 b/s
Count of elements                        : 1495
Stream size                              : 80.2 KiB (0%)
Title                                    : Chinese (Simplified)&English
Language                                 : Chinese
Default                                  : No
Forced                                   : No

Text #2
ID                                       : 4
Format                                   : UTF-8
Codec ID                                 : S_TEXT/UTF8
Codec ID/Info                            : UTF-8 Plain Text
Duration                                 : 1 h 32 min
Bit rate                                 : 118 b/s
Count of elements                        : 1495
Stream size                              : 80.2 KiB (0%)
Title                                    : Chinese (Traditional)&English
Language                                 : Chinese
Default                                  : No
Forced                                   : No

Text #3
ID                                       : 5
Format                                   : UTF-8
Codec ID                                 : S_TEXT/UTF8
Codec ID/Info                            : UTF-8 Plain Text
Duration                                 : 1 h 32 min
Bit rate                                 : 118 b/s
Count of elements                        : 1495
Stream size                              : 80.2 KiB (0%)
Title                                    : Chinese (Simplified)
Language                                 : Chinese
Default                                  : No
Forced                                   : No

Text #4
ID                                       : 6
Format                                   : UTF-8
Codec ID                                 : S_TEXT/UTF8
Codec ID/Info                            : UTF-8 Plain Text
Duration                                 : 1 h 32 min
Bit rate                                 : 118 b/s
Count of elements                        : 1495
Stream size                              : 80.2 KiB (0%)
Title                                    : Chinese (Traditional)
Language                                 : Chinese
Default                                  : No
Forced                                   : No

Text #5
ID                                       : 7
Format                                   : UTF-8
Codec ID                                 : S_TEXT/UTF8
Codec ID/Info                            : UTF-8 Plain Text
Duration                                 : 1 h 32 min
Bit rate                                 : 118 b/s
Count of elements                        : 1495
Stream size                              : 80.2 KiB (0%)
Title                                    : English
Language                                 : English
Default                                  : No
Forced                                   : No

Text #6
ID                                       : 8
Format                                   : PGS
Muxing mode                              : zlib
Codec ID                                 : S_HDMV/PGS
Codec ID/Info                            : Picture based subtitle format used on BDs/HD-DVDs
Duration                                 : 1 h 36 min
Bit rate                                 : 29.0 kb/s
Count of elements                        : 3363
Stream size                              : 20.1 MiB (0%)
Title                                    : English
Language                                 : English
Default                                  : No
Forced                                   : No

Menu
00:00:00.000                             : en:Chapter 01
00:09:24.314                             : en:Chapter 02
00:25:46.837                             : en:Chapter 03
00:34:09.297                             : en:Chapter 04
00:41:01.334                             : en:Chapter 05
00:47:44.737                             : en:Chapter 06
00:53:29.164                             : en:Chapter 07
01:06:31.654                             : en:Chapter 08
01:15:04.834                             : en:Chapter 09
01:22:13.971                             : en:Chapter 10
01:30:04.899                             : en:Chapter 11
01:33:46.704                             : en:Chapter 12

3302dd95ea10a405d405b38a0dc2323d.png

[/url]00600db4ff76d53cf6f2bc321dece266.png

[/url]0e3009fee9347a4087c137e97ac5893e.png

[/url]



                                                                                                                                                                                                        
                                                                                                                                                                                                                                                                                                                                                                                                                                                                                                                                                                                                                                                                                                                                                                                                                                                        
3f4e2c38326f4016f64c55647832d76c.torrent (16.8 KB, 下载次数: 0)

回复

使用道具 举报

小黑屋|西西论坛

本网站所有资源来自网络,如无意中侵犯了您的权益,请发邮件至 [email protected],立即清除相关链接

GMT+8, 2021-11-28 11:05 , Processed in 0.129936 second(s), 17 queries .

Powered by Discuz! X3.2

© 2001-2013 Comsenz Inc.

快速回复 返回顶部 返回列表