西西论坛

 找回密码
 立即注册
搜索

合法情人 Wifemistress.1977.ITALIAN.1080p.BluRay.x264.FLAC.2.0-HANDJOB 6.70GB

[复制链接]
admin 发表于 7 天前 | 显示全部楼层 |阅读模式
合法情人 Wifemistress.1977.ITALIAN.1080p.BluRay.x264.FLAC.2.0-HANDJOB 6.70GB                                                                                                                                                                                                                                                                                                                                                                                                                                                                                                                                        -->
帖子完整标题:合法情人 Wifemistress.1977.ITALIAN.1080p.BluRay.x264.FLAC.2.0-HANDJOB 6.70GB



d75a923d0d8cb3a750672c1cfe3a7b25.jpg



◎译  名 合法情人/Lover, Wife
◎片  名 Mogliamante
◎年  代 1977
◎产  地 意大利
◎类  别 剧情 / 喜剧 / 爱情
◎语  言 意大利语
◎上映日期 1978-03-01
◎豆瓣评分 /10 from 0 users
◎豆瓣链接 
◎片  长 106 分钟
◎导  演 Marco Vicario Marco Vicario
◎编  剧 Marco Vicario Marco Vicario / 鲁道夫·索内戈 Rodolfo Sonego
◎主  演 艾尔莎·瓦祖莱拉 Elsa Vazzoler
       Enzo Robutti Enzo Robutti
       加斯通·莫辛 Gastone Moschin
       斯蒂法诺·帕特里兹 Stefano Patrizi
       玛丽娅·蒙蒂 Maria Monti
       奥丽娃·维拉索布罗斯 Olga Karlatos
       阿蒂利奥·罗戴德约 Attilio Dottesio
       马塞洛·马斯楚安尼 Marcello Mastroianni
       伦纳德·曼 Leonard Mann
       劳拉·安托内利 Laura Antonelli
       安妮·贝儿 Annie Belle
       保罗·穆勒 Paul Muller
       Hélène Chanel Hélène Chanel
       阿尔曼多·布兰恰 Armando Brancia
       路易吉·迪贝尔蒂 Luigi Diberti
       威廉姆·伯格 William Berger

◎标  签 意大利 | 意大利电影 |  | 劳拉·安托妮莉 | Laura | 被忽视的片子 | 剧情 | Marcello_Mastroianni

◎简  介

  Since her husband pronounced her frigid on her wedding night, Antonia DeAngelis has been an invalid. When he disappears, she believes him dead: she leaves her bed and takes over his business, traveling to see clients. She discovers her husband's passions, his political writing, mistresses, and his indifference to the peasants on her family's land. She improves their lot, begins an affair with a young foreign doctor, and publishes her husband's writings. All this time, he's hiding from a murder charge in a house across the square. Amazed, he watches her become his sexual and social equal. After the police drop the murder charge, will he disappear, end his life, or rejoin her on new terms?
Video
ID                                       : 1
Format                                   : AVC
Format/Info                              : Advanced Video Codec
Format profile                           :
Format settings                          : CABAC / 4 Ref Frames
Format settings, CABAC                   : Yes
Format settings, Reference frames        : 4 frames
Codec ID                                 : V_MPEG4/ISO/AVC
Duration                                 : 1 h 45 min
Bit rate                                 : 8 596 kb/s
Width                                    : 1 916 pixels
Height                                   : 1 048 pixels
Display aspect ratio                     : 1.85:1
Frame rate mode                          : Constant
Frame rate                               : 23.976 (24000/1001/189150) FPS
Color space                              : YUV
Chroma subsampling                       : 4:2:0
Bit depth                                : 8 bits
Scan type                                : Progressive
Bits/(Pixel*Frame)                       : 0.179
Stream size                              : 6.36 GiB (95%)
Writing library                          : x264 core 157 r2935 545de2f
Encoding settings                        : cabac=1 / ref=4 / deblock=1:-3:-3 / analyse=0x3:0x133 / me=umh / subme=10 / psy=1 / psy_rd=1.00:0.00 / mixed_ref=1 / me_range=32 / chroma_me=1 / trellis=2 / 8x8dct=1 / cqm=0 / deadzone=21,11 / fast_pskip=0 / chroma_qp_offset=-2 / threads=18 / lookahead_threads=4 / sliced_threads=0 / nr=0 / decimate=0 / interlaced=0 / bluray_compat=0 / constrained_intra=0 / bframes=16 / b_pyramid=2 / b_adapt=2 / b_bias=0 / direct=3 / weightb=1 / open_gop=0 / weightp=1 / keyint=240 / keyint_min=24 / scenecut=40 / intra_refresh=0 / rc_lookahead=60 / rc=crf / mbtree=0 / crf=23.2 / qcomp=0.60 / qpmin=0 / qpmax=69 / qpstep=4 / vbv_maxrate=62500 / vbv_bufsize=78125 / crf_max=0.0 / nal_hrd=none / filler=0 / ip_ratio=1.40 / pb_ratio=1.30 / aq=2:1.00
Default                                  : Yes
Forced                                   : No
Color range                              : Limited
Color primaries                          : BT.709
Transfer characteristics                 : BT.709
Matrix coefficients                      : BT.709

Audio
ID                                       : 2
ID in the original source medium         : 4352 (0x1100)
Format                                   : FLAC
Format/Info                              : Free Lossless Audio Codec
Codec ID                                 : A_FLAC
Duration                                 : 1 h 45 min
Bit rate mode                            : Variable
Bit rate                                 : 451 kb/s
Channel(s)                               : 2 channels
Channel layout                           : L R
Sampling rate                            : 48.0 kHz
Frame rate                               : 11.719 FPS (4096 SPF)
Bit depth                                : 16 bits
Compression mode                         : Lossless
Stream size                              : 342 MiB (5%)
Language                                 : Italian
Default                                  : Yes
Forced                                   : No
Original source medium                   : Blu-ray

Text #1
ID                                       : 3
Format                                   : UTF-8
Codec ID                                 : S_TEXT/UTF8
Codec ID/Info                            : UTF-8 Plain Text
Duration                                 : 1 h 40 min
Bit rate                                 : 61 b/s
Count of elements                        : 937
Stream size                              : 45.0 KiB (0%)
Language                                 : English
Default                                  : Yes
Forced                                   : No

Text #2
ID                                       : 4
Format                                   : UTF-8
Codec ID                                 : S_TEXT/UTF8
Codec ID/Info                            : UTF-8 Plain Text
Duration                                 : 1 h 38 min
Bit rate                                 : 61 b/s
Count of elements                        : 818
Stream size                              : 44.3 KiB (0%)
Language                                 : Italian
Default                                  : No
Forced                                   : No

Menu
00:00:00.000                             : :Chapter 1
00:18:45.458                             : :Chapter 2
00:29:43.115                             : :Chapter 3
00:39:19.524                             : :Chapter 4
00:50:45.793                             : :Chapter 5
01:11:39.462                             : :Chapter 6
01:27:05.387                             : :Chapter 7
01:44:24.175                             : :Chapter 8

a1cb347eef096f7b36a08bd5933ed4f7.png

[/url]9766061c6afeea939834b6cd063636a9.png

[/url]



                                                                                                                                                                                                        
                                                                                                                                                                                                                                                                                                                                                                                                                                                                                                                                                                                                                                                                                                                                                                                                                                                        
8dcfcb94e4eda9f0cc9ba164661ad8b8.torrent (17.4 KB, 下载次数: 0)

回复

使用道具 举报

小黑屋|西西论坛

本网站所有资源来自网络,如无意中侵犯了您的权益,请发邮件至 [email protected],立即清除相关链接

GMT+8, 2021-11-28 11:32 , Processed in 0.130829 second(s), 17 queries .

Powered by Discuz! X3.2

© 2001-2013 Comsenz Inc.

快速回复 返回顶部 返回列表