西西论坛

 找回密码
 立即注册
搜索

王公 Edge.of.the.World.2021.720p.BluRay.x264-FREEMAN 4.11GB

[复制链接]
admin 发表于 2021-11-21 15:40:30 | 显示全部楼层 |阅读模式
王公 Edge.of.the.World.2021.720p.BluRay.x264-FREEMAN 4.11GB                                                                                                                                                                                                                                                                                                                                                                                                                                                                                                                                        -->
帖子完整标题:王公 Edge.of.the.World.2021.720p.BluRay.x264-FREEMAN 4.11GB



a1dfda392ae9b014714485c5a9258d09.jpg



◎译  名 王公/Edge of the World/White Rajah/白人拉者
◎片  名 Rajah
◎年  代 2021
◎产  地 美国,英国,中国大陆,马来西亚
◎类  别 冒险
◎语  言 马来语,阿拉伯语,英语
◎上映日期 2021-06-04(美国) / 2021-06-21(英国)
◎豆瓣评分 /10 from 0 users
◎豆瓣链接 
◎片  长 104分钟
◎编  剧 Rob Allyn Rob Allyn
◎主  演 乔纳森·莱斯·梅耶斯 Jonathan Rhys Meyers
       多米尼克·莫纳汉 Dominic Monaghan
       拉尔夫·伊内森 Ralph Ineson
       汉娜·纽 Hannah New
       何超仪 Josie Ho
       博朗·帕拉雷 Bront Palarae
       拉欣·拉萨利 Rahim Razali
       阿蒂卡?哈西霍兰 Atiqah Hasiholan

◎标  签 传记 | 历史 | 剧情 | 马来西亚 | 英国 | 2021 | 美国 | 乔纳森·莱斯·梅耶斯

◎简  介

  英国贵族探险家布鲁克逃离了丑闻和维多利亚时代社会的束缚,去探索19世纪40年代婆罗洲的野生动物。布鲁克爱上了这个热带天堂,与海盗和苏丹的敌人战斗,赢得了砂拉越王的王冠,在那里他统治着一个比英国还大的丛林王国。
Video
ID                                       : 1
Format                                   : AVC
Format/Info                              : Advanced Video Codec
Format profile                           :
Format settings                          : CABAC / 8 Ref Frames
Format settings, CABAC                   : Yes
Format settings, Reference frames        : 8 frames
Codec ID                                 : V_MPEG4/ISO/AVC
Duration                                 : 1 h 44 min
Bit rate                                 : 4 992 kb/s
Width                                    : 1 280 pixels
Height                                   : 536 pixels
Display aspect ratio                     : 2.40:1
Frame rate mode                          : Constant
Frame rate                               : 23.976 (24000/1001/189150) FPS
Color space                              : YUV
Chroma subsampling                       : 4:2:0
Bit depth                                : 8 bits
Scan type                                : Progressive
Bits/(Pixel*Frame)                       : 0.303
Stream size                              : 3.63 GiB (88%)
Writing library                          : x264 core 164 r3075 66a5bc1
Encoding settings                        : cabac=1 / ref=8 / deblock=1:-3:-3 / analyse=0x3:0x133 / me=umh / subme=9 / psy=1 / psy_rd=1.00:0.00 / mixed_ref=1 / me_range=16 / chroma_me=1 / trellis=2 / 8x8dct=1 / cqm=0 / deadzone=21,11 / fast_pskip=0 / chroma_qp_offset=-2 / threads=17 / lookahead_threads=1 / sliced_threads=0 / nr=0 / decimate=1 / interlaced=0 / bluray_compat=0 / constrained_intra=0 / bframes=3 / b_pyramid=2 / b_adapt=2 / b_bias=0 / direct=3 / weightb=1 / open_gop=0 / weightp=2 / keyint=250 / keyint_min=23 / scenecut=40 / intra_refresh=0 / rc_lookahead=60 / rc=crf / mbtree=1 / crf=17.0 / qcomp=0.60 / qpmin=0 / qpmax=69 / qpstep=4 / ip_ratio=1.40 / aq=3:1.00
Default                                  : Yes
Forced                                   : No
Color range                              : Limited
Matrix coefficients                      : BT.709

Audio
ID                                       : 2
Format                                   : AC-3
Format/Info                              : Audio Coding 3
Commercial name                          : Dolby Digital
Codec ID                                 : A_AC3
Duration                                 : 1 h 44 min
Bit rate mode                            : Constant
Bit rate                                 : 640 kb/s
Channel(s)                               : 6 channels
Channel layout                           : L R C LFE Ls Rs
Sampling rate                            : 48.0 kHz
Frame rate                               : 31.250 FPS (1536 SPF)
Compression mode                         : Lossy
Stream size                              : 476 MiB (11%)
Language                                 : English
Service kind                             : Complete Main
Default                                  : Yes
Forced                                   : No

Text #1
ID                                       : 3
Format                                   : PGS
Muxing mode                              : zlib
Codec ID                                 : S_HDMV/PGS
Codec ID/Info                            : Picture based subtitle format used on BDs/HD-DVDs
Duration                                 : 1 h 36 min
Bit rate                                 : 1 114 b/s
Count of elements                        : 158
Stream size                              : 789 KiB (0%)
Language                                 : German
Default                                  : No
Forced                                   : No

Text #2
ID                                       : 4
Format                                   : PGS
Muxing mode                              : zlib
Codec ID                                 : S_HDMV/PGS
Codec ID/Info                            : Picture based subtitle format used on BDs/HD-DVDs
Duration                                 : 1 h 36 min
Bit rate                                 : 15.8 kb/s
Count of elements                        : 2510
Stream size                              : 11.0 MiB (0%)
Language                                 : German
Default                                  : No
Forced                                   : No

Menu
00:00:00.000                             : en:00:00:00.000
00:10:29.254                             : en:00:10:29.254
00:17:00.144                             : en:00:17:00.144
00:25:56.889                             : en:00:25:56.889
00:33:44.481                             : en:00:33:44.481
00:44:06.018                             : en:00:44:06.018
00:51:49.398                             : en:00:51:49.398
01:00:10.732                             : en:01:00:10.732
01:09:20.698                             : en:01:09:20.698
01:16:22.870                             : en:01:16:22.870
01:26:40.112                             : en:01:26:40.112
01:36:16.813                             : en:01:36:16.813

6b4c24644b059f4ae720a3645f2cce06.jpg





                                                                                                                                                                                                        
                                                                                                                                                                                                                                                                                                                                                                                                                                                                                                                                                                                                                                                                                                                                                                                                                                                        
b9b039ef339179731907898d1837411c.torrent (21.25 KB, 下载次数: 0)

回复

使用道具 举报

小黑屋|西西论坛

本网站所有资源来自网络,如无意中侵犯了您的权益,请发邮件至 [email protected],立即清除相关链接

GMT+8, 2021-12-3 15:31 , Processed in 0.099008 second(s), 17 queries .

Powered by Discuz! X3.2

© 2001-2013 Comsenz Inc.

快速回复 返回顶部 返回列表