西西论坛

 找回密码
 立即注册
搜索

安妮特/ANNETTE:星梦恋歌 Annette.2021.1080p.BluRay.x264.DDP5.1-NOGRP 15.96GB ... ...

[复制链接]
admin 发表于 7 天前 | 显示全部楼层 |阅读模式
安妮特/ANNETTE:星梦恋歌 Annette.2021.1080p.BluRay.x264.DDP5.1-NOGRP 15.96GB                                                                                                                                                                                                                                                                                                                                                                                                                                                                                                                                        -->
帖子完整标题:安妮特/ANNETTE:星梦恋歌 Annette.2021.1080p.BluRay.x264.DDP5.1-NOGRP 15.96GB



17cafc9cc31839b374c5c440bdf931b4.jpg



◎译  名 安妮特/ANNETTE:星梦恋歌(台)
◎片  名 Annette
◎年  代 2021
◎产  地 法国,墨西哥,美国,瑞士,比利时,日本,德国
◎类  别 剧情 / 爱情 / 歌舞
◎语  言 英语
◎上映日期 2021-07-06(戛纳电影节) / 2021-07-07(法国) / 2021-08-20(美国网络)
◎豆瓣评分 7.0/10 from 7859 users
◎豆瓣链接 
◎片  长 141分钟
◎导  演 莱奥·卡拉克斯 Leos Carax
◎编  剧 罗恩·梅尔 Ron Mael / 罗素·梅尔 Russell Mael
◎主  演 亚当·德赖弗 Adam Driver
       玛丽昂·歌迪亚 Marion Cotillard
       西蒙·赫尔伯格 Simon Helberg
       德温·麦克道维尔 Devyn McDowell
       罗恩·梅尔 Ron Mael
       罗素·梅尔 Russell Mael
       娜塔莉·杰克逊·门多萨 Natalie Jackson Mendoza
       水原希子 Kiko Mizuhara
       诺米·沙伦斯 Noémie Schellens
       古馆宽治 Kanji Furutachi
       福岛莉拉 Rila Fukushima
       伊娃·范·德·古奇特 Eva van der Gucht
       Natalia Lafourcade Natalia Lafourcade
       Wim Opbrouck Wim Opbrouck
       Ella Leyers Ella Leyers
       亚矢乃 Ayano
       尼诺·波尔齐奥 Nino Porzio
       克里斯蒂安·斯基宾斯基 Christian Skibinski
        Kevin Van Doorslaer

◎标  签 法国 | 歌舞 | 2021 | 爱情 | 剧情 | 美国 | LeosCarax | 戛纳电影节

◎简  介

  讲述一对好莱坞夫妇和他们的女儿安妮特的故事:丈夫亨利(亚当·德赖弗 Adam Driver 饰)是一位单口喜剧演员,妻子安则是一名歌剧明星(玛丽昂·歌迪亚 Marion Cotillard 饰),而他们神秘的女儿安妮特,又拥有怎样不同寻常的人生呢?

◎获奖情况

  第74届戛纳电影节 ?(2021)
  主竞赛单元金棕榈奖(提名) 莱奥·卡拉克斯
  主竞赛单元最佳导演 莱奥·卡拉克斯
Video
ID                                       : 1
Format                                   : AVC
Format/Info                              : Advanced Video Codec
Format profile                           :
Format settings                          : CABAC / 4 Ref Frames
Format settings, CABAC                   : Yes
Format settings, Reference frames        : 4 frames
Codec ID                                 : V_MPEG4/ISO/AVC
Duration                                 : 2 h 20 min
Bit rate                                 : 15.3 Mb/s
Width                                    : 1 920 pixels
Height                                   : 1 038 pixels
Display aspect ratio                     : 1.85:1
Frame rate mode                          : Constant
Frame rate                               : 24.000 FPS
Color space                              : YUV
Chroma subsampling                       : 4:2:0
Bit depth                                : 8 bits
Scan type                                : Progressive
Bits/(Pixel*Frame)                       : 0.319
Stream size                              : 14.9 GiB (94%)
Writing library                          : x264 core 164 r3075+55M 97d28bb t_mod_New [(8 & 10) X86_64]
Encoding settings                        : cabac=1 / ref=4 / deblock=1:-3:-3 / analyse=0x3:0x133 / me=umh / subme=10 / psy=1 / fade_compensate=0.00 / psy_rd=0.97:0.00 / mixed_ref=1 / me_range=32 / chroma_me=1 / trellis=2 / 8x8dct=1 / cqm=0 / deadzone=21,11 / fast_pskip=0 / chroma_qp_offset=-2 / threads=18 / lookahead_threads=4 / sliced_threads=0 / nr=0 / decimate=0 / interlaced=0 / bluray_compat=0 / constrained_intra=0 / fgo=0 / bframes=10 / b_pyramid=2 / b_adapt=2 / b_bias=0 / direct=3 / weightb=1 / open_gop=0 / weightp=2 / keyint=240 / keyint_min=24 / scenecut=40 / intra_refresh=0 / rc_lookahead=60 / rc=crf / mbtree=0 / crf=18.5500 / qcomp=0.65 / qpmin=0:0:0 / qpmax=69:69:69 / qpstep=4 / vbv_maxrate=62500 / vbv_bufsize=78125 / crf_max=0.0 / nal_hrd=none / filler=0 / ip_ratio=1.35 / pb_ratio=1.25 / aq=3:0.85 / aq-sensitivity=10.00 / aq-factor=1.00:1.00:1.00 / aq2=0 / aq3=0
Language                                 : English
Default                                  : Yes
Forced                                   : No
Color range                              : Limited
Color primaries                          : BT.709
Transfer characteristics                 : BT.709
Matrix coefficients                      : BT.709

Audio
ID                                       : 2
Format                                   : E-AC-3
Format/Info                              : Enhanced AC-3
Commercial name                          : Dolby Digital Plus
Codec ID                                 : A_EAC3
Duration                                 : 2 h 20 min
Bit rate mode                            : Constant
Bit rate                                 : 1 023 kb/s
Channel(s)                               : 6 channels
Channel layout                           : L R C LFE Ls Rs
Sampling rate                            : 48.0 kHz
Frame rate                               : 93.750 FPS (512 SPF)
Compression mode                         : Lossy
Stream size                              : 1.00 GiB (6%)
Language                                 : English
Service kind                             : Complete Main
Default                                  : Yes
Forced                                   : No

Text #1
ID                                       : 3
Format                                   : UTF-8
Codec ID                                 : S_TEXT/UTF8
Codec ID/Info                            : UTF-8 Plain Text
Duration                                 : 38 min 16 s
Bit rate                                 : 0 b/s
Count of elements                        : 4
Stream size                              : 79.0 Bytes (0%)
Title                                    : FORCED
Language                                 : English
Default                                  : No
Forced                                   : Yes

Text #2
ID                                       : 4
Format                                   : UTF-8
Codec ID                                 : S_TEXT/UTF8
Codec ID/Info                            : UTF-8 Plain Text
Duration                                 : 2 h 18 min
Bit rate                                 : 43 b/s
Count of elements                        : 1827
Stream size                              : 44.8 KiB (0%)
Language                                 : English
Default                                  : Yes
Forced                                   : No

Text #3
ID                                       : 5
Format                                   : PGS
Muxing mode                              : zlib
Codec ID                                 : S_HDMV/PGS
Codec ID/Info                            : Picture based subtitle format used on BDs/HD-DVDs
Duration                                 : 2 h 19 min
Bit rate                                 : 16.8 kb/s
Count of elements                        : 2718
Stream size                              : 16.7 MiB (0%)
Title                                    : sup
Language                                 : French
Default                                  : No
Forced                                   : No

Menu
00:00:00.000                             : :Chapter 01
00:09:06.458                             : :Chapter 02
00:23:45.792                             : :Chapter 03
00:38:17.792                             : :Chapter 04
00:49:16.458                             : :Chapter 05
01:01:41.042                             : :Chapter 06
01:19:39.042                             : :Chapter 07
01:33:32.458                             : :Chapter 08
01:43:37.208                             : :Chapter 09
01:52:17.333                             : :Chapter 10
02:04:10.500                             : :Chapter 11
02:13:58.958                             : :Chapter 12

f7529b7a086556d3ef99b0ef5447a2fb.png

[/url]b2a16e2754ee66092b52b176eb3c8ef4.png

[/url]b17a2305f2481abb29978bd2482b4c3e.png

[/url]



                                                                                                                                                                                                        
                                                                                                                                                                                                                                                                                                                                                                                                                                                                                                                                                                                                                                                                                                                                                                                                                                                        
0e368fd06baf316f6e0d81bdd814d485.torrent (20.57 KB, 下载次数: 0)

回复

使用道具 举报

小黑屋|西西论坛

本网站所有资源来自网络,如无意中侵犯了您的权益,请发邮件至 [email protected],立即清除相关链接

GMT+8, 2021-11-28 10:57 , Processed in 0.139576 second(s), 17 queries .

Powered by Discuz! X3.2

© 2001-2013 Comsenz Inc.

快速回复 返回顶部 返回列表