西西论坛

 找回密码
 立即注册
搜索

最美丽的夏天 A.Summer.Tale.2000.720p.BluRay.x264-USURY 4.50GB

[复制链接]
admin 发表于 2021-11-21 15:40:23 | 显示全部楼层 |阅读模式
最美丽的夏天 A.Summer.Tale.2000.720p.BluRay.x264-USURY 4.50GB                                                                                                                                                                                                                                                                                                                                                                                                                                                                                                                                        -->
帖子完整标题:最美丽的夏天 A.Summer.Tale.2000.720p.BluRay.x264-USURY 4.50GB



2a2bc04b5503e6874b54c06df9ca5a12.jpg



◎译  名 最美丽的夏天/A Summer Tale
◎片  名 Den b?sta sommaren
◎年  代 2000
◎产  地 瑞典
◎类  别 剧情 / 喜剧 / 爱情 / 家庭
◎语  言 瑞典语,英语
◎上映日期 2000-03-03
◎豆瓣评分 8.1/10 from 244 users
◎豆瓣链接 
◎片  长 91 分钟
◎导  演 Ulf Malmros Ulf Malmros
◎编  剧 Ulf Malmros Ulf Malmros / Vasa Vasa
◎主  演 布拉西·布兰斯特罗姆 Brasse Br?nnstr?m
       G?ran Thorell G?ran Thorell
       Rebecca Scheja Rebecca Scheja
       安·彼得伦 Ann Petrén
       Pale Olofsson Pale Olofsson
       茜茜莉亚·尼尔森 Cecilia Nilsson
       Gachugo Makini Gachugo Makini
       Anna Kristina Kallin Anna Kristina Kallin
       拉夫·卡尔松 Ralph Carlsson
       杰克尔·法尔斯特伦 Jerker Fahlstr?m
       凯杰尔·博格奎斯特 Kjell Bergqvist
       安纳斯塔西奥斯·索利斯 Anastasios Soulis
       Marcus Hasselborg Marcus Hasselborg

◎标  签 瑞典 | 瑞典电影 | 儿童 | 亲情 | 文艺 | 北欧 | 2000 | 尤夫·玛姆斯

◎简  介

  故事发生在1958年的夏天,安尼卡(Rebecca Scheja 饰)莫顿(安纳斯塔西奥斯·索利斯 Anastasios Soulis 饰)是从小失去了父母的孤儿,今年夏天,他们要前往尤英福(Kjell Bergqvist 饰)先生家,在这里勤工俭学。尤英福先生常年独居,因为从事着殡葬业相关的工作,所以性格难免有些古板和苛刻,但实际上,他冰冷的外表下,埋藏着一颗火热的心灵。
  
  安尼卡和莫顿同尤英福先生相处的非常愉快,不忍心看到他时常露出寂寞的表情,两个孩子决定帮他找一个伴。他们讲目标放在了同样单身而且十分善良的斯万老师(Cecilia Nilsson 饰)身上,在孩子们的撮合下,两人的感情稳步增长。夏天眼看这就要结束了。
Video
ID                                       : 1
Format                                   : AVC
Format/Info                              : Advanced Video Codec
Format profile                           :
Format settings                          : CABAC / 9 Ref Frames
Format settings, CABAC                   : Yes
Format settings, Reference frames        : 9 frames
Codec ID                                 : V_MPEG4/ISO/AVC
Duration                                 : 1 h 27 min
Bit rate                                 : 6 676 kb/s
Width                                    : 1 280 pixels
Height                                   : 692 pixels
Display aspect ratio                     : 1.85:1
Frame rate mode                          : Constant
Frame rate                               : 25.000 FPS
Color space                              : YUV
Chroma subsampling                       : 4:2:0
Bit depth                                : 8 bits
Scan type                                : Progressive
Bits/(Pixel*Frame)                       : 0.301
Stream size                              : 4.07 GiB (91%)
Writing library                          : x264 core 164 r3075 66a5bc1
Encoding settings                        : cabac=1 / ref=9 / deblock=1:-3:-3 / analyse=0x3:0x133 / me=umh / subme=10 / psy=1 / psy_rd=1.00:0.15 / mixed_ref=1 / me_range=24 / chroma_me=1 / trellis=2 / 8x8dct=1 / cqm=0 / deadzone=21,11 / fast_pskip=1 / chroma_qp_offset=-3 / threads=18 / lookahead_threads=3 / sliced_threads=0 / nr=0 / decimate=1 / interlaced=0 / bluray_compat=0 / constrained_intra=0 / bframes=8 / b_pyramid=2 / b_adapt=2 / b_bias=0 / direct=3 / weightb=1 / open_gop=0 / weightp=2 / keyint=250 / keyint_min=25 / scenecut=40 / intra_refresh=0 / rc_lookahead=60 / rc=crf / mbtree=1 / crf=17.5 / qcomp=0.60 / qpmin=0 / qpmax=69 / qpstep=4 / ip_ratio=1.40 / aq=3:0.60
Language                                 : English
Default                                  : Yes
Forced                                   : No
Color range                              : Limited
Matrix coefficients                      : BT.709

Audio
ID                                       : 2
Format                                   : AC-3
Format/Info                              : Audio Coding 3
Commercial name                          : Dolby Digital
Codec ID                                 : A_AC3
Duration                                 : 1 h 27 min
Bit rate mode                            : Constant
Bit rate                                 : 640 kb/s
Channel(s)                               : 6 channels
Channel layout                           : L R C LFE Ls Rs
Sampling rate                            : 48.0 kHz
Frame rate                               : 31.250 FPS (1536 SPF)
Compression mode                         : Lossy
Stream size                              : 400 MiB (9%)
Language                                 : Swedish
Service kind                             : Complete Main
Default                                  : Yes
Forced                                   : No

Text #1
ID                                       : 3
Format                                   : UTF-8
Codec ID                                 : S_TEXT/UTF8
Codec ID/Info                            : UTF-8 Plain Text
Duration                                 : 1 h 26 min
Bit rate                                 : 57 b/s
Count of elements                        : 825
Stream size                              : 36.6 KiB (0%)
Title                                    : English
Language                                 : English
Default                                  : Yes
Forced                                   : Yes

Text #2
ID                                       : 4
Format                                   : PGS
Muxing mode                              : zlib
Codec ID                                 : S_HDMV/PGS
Codec ID/Info                            : Picture based subtitle format used on BDs/HD-DVDs
Duration                                 : 1 h 24 min
Bit rate                                 : 18.8 kb/s
Count of elements                        : 1604
Stream size                              : 11.4 MiB (0%)
Title                                    : Danish
Language                                 : Danish
Default                                  : No
Forced                                   : No

Text #3
ID                                       : 5
Format                                   : PGS
Muxing mode                              : zlib
Codec ID                                 : S_HDMV/PGS
Codec ID/Info                            : Picture based subtitle format used on BDs/HD-DVDs
Duration                                 : 1 h 23 min
Bit rate                                 : 15.5 kb/s
Count of elements                        : 1366
Stream size                              : 9.28 MiB (0%)
Title                                    : Finnish
Language                                 : Finnish
Default                                  : No
Forced                                   : No

Text #4
ID                                       : 6
Format                                   : PGS
Muxing mode                              : zlib
Codec ID                                 : S_HDMV/PGS
Codec ID/Info                            : Picture based subtitle format used on BDs/HD-DVDs
Duration                                 : 1 h 24 min
Bit rate                                 : 16.0 kb/s
Count of elements                        : 1396
Stream size                              : 9.62 MiB (0%)
Title                                    : Norwegian
Language                                 : Norwegian
Default                                  : No
Forced                                   : No

Text #5
ID                                       : 7
Format                                   : PGS
Muxing mode                              : zlib
Codec ID                                 : S_HDMV/PGS
Codec ID/Info                            : Picture based subtitle format used on BDs/HD-DVDs
Duration                                 : 32 min 16 s
Bit rate                                 : 1 217 b/s
Count of elements                        : 52
Stream size                              : 288 KiB (0%)
Title                                    : Swedish forced
Language                                 : Swedish
Default                                  : No
Forced                                   : No

Menu
00:00:00.000                             : en:00:00:00.000
00:11:10.720                             : en:00:11:10.720
00:20:59.360                             : en:00:20:59.360
00:32:39.600                             : en:00:32:39.600
00:45:46.960                             : en:00:45:46.960
00:57:09.360                             : en:00:57:09.360
01:07:53.840                             : en:01:07:53.840
01:18:22.480                             : en:01:18:22.480

7766e265830ab1f52ee9388c7082123b.jpg





                                                                                                                                                                                                        
                                                                                                                                                                                                                                                                                                                                                                                                                                                                                                                                                                                                                                                                                                                                                                                                                                                        
192863ad12a222dc0741069e10186ce5.torrent (23.19 KB, 下载次数: 0)

回复

使用道具 举报

小黑屋|西西论坛

本网站所有资源来自网络,如无意中侵犯了您的权益,请发邮件至 [email protected],立即清除相关链接

GMT+8, 2021-12-3 14:55 , Processed in 0.081766 second(s), 17 queries .

Powered by Discuz! X3.2

© 2001-2013 Comsenz Inc.

快速回复 返回顶部 返回列表