西西论坛

 找回密码
 立即注册
搜索

怒火 Raging.Fire.2021.CHINESE.1080p.BluRay.x264.DD5.1-iKiW 9.96GB

[复制链接]
admin 发表于 7 天前 | 显示全部楼层 |阅读模式
怒火 Raging.Fire.2021.CHINESE.1080p.BluRay.x264.DD5.1-iKiW 9.96GB                                                                                                                                                                                                                                                                                                                                                                                                                                                                                                                                        -->
帖子完整标题:怒火 Raging.Fire.2021.CHINESE.1080p.BluRay.x264.DD5.1-iKiW 9.96GB



3f68a94f207f034f2190683bd3b57865.jpg



◎译  名 怒火·重案/Crossfire/Raging Fire/怒火战/怒火重案/火拼
◎片  名 怒火
◎年  代 2021
◎产  地 中国香港,中国大陆
◎类  别 动作 / 犯罪
◎语  言 粤语,汉语普通话
◎上映日期 2021-07-30(中国大陆) / 2021-08-19(中国香港)
◎豆瓣评分 7.2/10 from 352213 users
◎豆瓣链接 
◎片  长 128分钟
◎导  演 陈木胜 Benny Chan
◎编  剧 陈木胜 Benny Chan / 凌伟骏 Ryan Wai-Chun Ling / 唐耀良 Yiu-leung Tong
◎主  演 甄子丹 Donnie Yen
       谢霆锋 Nicholas Tse
       秦岚 Lan Qin
       谭耀文 Patrick Tam
       黄德斌 Tak-bun Wong
       吴浩康 Deep Ng
       何珮瑜 Jeana Ho
       杨天宇 Angus Yeung
       汤君慈 Bruce Tong
       麦亨利 Henry Mai
       喻亢 Kang Yu
       张文杰 Man Kit Cheung
       胡子彤 Tony Tsz-Tung Wu
       吕良伟 Ray Lui
       任达华 Simon Yam
       袁富华 Fu-wah Yuen
       林国斌 Ben Lam
       卢惠光 Ken Lo
       陈家乐 Carlos Chan
       张国强 Kwok Keung Cheung
       汤怡 Kathy Tong
       高战 Chris Collins
       辛格·哈提汗·比托 Singh Hartihan Bitto
       克里斯·柯林斯 K.C. Collins
       高俊文 Chun-Man Ko
       杜港 Kong To
       谭干聪 Kon Chung Tam
       郑咏谦 Moses Wing-Him Cheng
       张颖富
       蒙为亮 Mung Wai Leong
       骆振伟 Thor Lok
       何俊轩 Ho Chun Hin
       谭伟权 Gary Tam
       何伟业 Wai-Yip Ho
       谭坤伦 Alan Tam
       范仲恒 Chung Hang Fan
       罗孝勇 Sheldon Lo
       吴云甫 Owen Ng
       许博文 Johnny Hui
       区轩玮 John Au
       林家熙 Lam ka hel
       叶朗钲 Mike Yip
       李子明 Chi Ming Lee
       林靖文 Sophia Lam
       陈彼得 Peter Chan
       陈浩 Hao Chen
       陈振华 Ricky Chan
       吴凤鸣 Ng Fung Ming
       蒲茗蓝 Ming Nam Po
       吴瑞庭 Shui Ting Ng
       梁皓楷 Jerry Leung
       梁展峰 Chin-fung Leung
       李煌生 Wong-seng Lee
       狄哲龙 Dhillon Harjit Singh
       周祉君 Aaron Chow
       梁雍婷 Rachel Leung
       邹凯光 Matt Chow
       火火 Fire Lee Ka Wing
       郭锋 Fung Kwok
       罗浩铭 Ken Ho-Ming Law
       李凯贤 Brian Lee
       郭政鸿 Jing-hung Kwok
       麦长青 Cheung-Ching Mak

◎标  签 警匪 | 中国香港 | 动作 | 犯罪 | 枪战 | 2021 | 悬疑 | 中国大陆

◎简  介

  重案组布网围剿国际毒枭,突然杀出一组蒙面悍匪“黑吃黑”,更冷血屠杀众警察。重案组督察张崇邦(甄子丹 饰)亲睹战友被杀,深入追查发现,悍匪首领竟是昔日战友邱刚敖(谢霆锋 饰)。原来敖也曾是警队明日之星,而将敖推向罪恶深渊的人,却正是邦。宿命令二人再次纠缠,一切恩怨张崇邦如何作出了断……
Video
ID                                       : 1
Format                                   : AVC
Format/Info                              : Advanced Video Codec
Format profile                           :
Format settings                          : CABAC / 5 Ref Frames
Format settings, CABAC                   : Yes
Format settings, Reference frames        : 5 frames
Codec ID                                 : V_MPEG4/ISO/AVC
Duration                                 : 2 h 5 min
Bit rate                                 : 10 000 kb/s
Width                                    : 1 920 pixels
Height                                   : 804 pixels
Display aspect ratio                     : 2.40:1
Frame rate mode                          : Constant
Frame rate                               : 24.000 FPS
Color space                              : YUV
Chroma subsampling                       : 4:2:0
Bit depth                                : 8 bits
Scan type                                : Progressive
Bits/(Pixel*Frame)                       : 0.270
Stream size                              : 8.79 GiB (88%)
Writing library                          : x264 core 133 r2334 a3ac64b
Encoding settings                        : cabac=1 / ref=5 / deblock=1:-3:-3 / analyse=0x3:0x113 / me=umh / subme=11 / psy=1 / psy_rd=1.00:0.00 / mixed_ref=1 / me_range=64 / chroma_me=1 / trellis=2 / 8x8dct=1 / cqm=0 / deadzone=21,11 / fast_pskip=0 / chroma_qp_offset=-4 / threads=36 / lookahead_threads=6 / sliced_threads=0 / nr=0 / decimate=0 / interlaced=0 / bluray_compat=0 / constrained_intra=0 / bframes=8 / b_pyramid=2 / b_adapt=2 / b_bias=0 / direct=3 / weightb=1 / open_gop=0 / weightp=2 / keyint=250 / keyint_min=24 / scenecut=40 / intra_refresh=0 / rc=2pass / mbtree=0 / bitrate=10000 / ratetol=1.0 / qcomp=0.60 / qpmin=0 / qpmax=69 / qpstep=4 / cplxblur=20.0 / qblur=0.5 / ip_ratio=1.40 / pb_ratio=1.30 / aq=1:0.80
Language                                 : English
Default                                  : Yes
Forced                                   : No

Audio #1
ID                                       : 2
Format                                   : AC-3
Format/Info                              : Audio Coding 3
Commercial name                          : Dolby Digital
Format settings                          : Dolby Surround EX
Codec ID                                 : A_AC3
Duration                                 : 2 h 5 min
Bit rate mode                            : Constant
Bit rate                                 : 640 kb/s
Channel(s)                               : 6 channels
Channel layout                           : L R C LFE Ls Rs
Sampling rate                            : 48.0 kHz
Frame rate                               : 31.250 FPS (1536 SPF)
Compression mode                         : Lossy
Stream size                              : 576 MiB (6%)
Title                                    : 国语(Mandarin)
Language                                 : Chinese
Service kind                             : Complete Main
Default                                  : Yes
Forced                                   : No

Audio #2
ID                                       : 3
Format                                   : AC-3
Format/Info                              : Audio Coding 3
Commercial name                          : Dolby Digital
Format settings                          : Dolby Surround EX
Codec ID                                 : A_AC3
Duration                                 : 2 h 5 min
Bit rate mode                            : Constant
Bit rate                                 : 640 kb/s
Channel(s)                               : 6 channels
Channel layout                           : L R C LFE Ls Rs
Sampling rate                            : 48.0 kHz
Frame rate                               : 31.250 FPS (1536 SPF)
Compression mode                         : Lossy
Stream size                              : 576 MiB (6%)
Title                                    : 粤语(Cantonese)
Language                                 : Chinese
Service kind                             : Complete Main
Default                                  : No
Forced                                   : No

Text #1
ID                                       : 4
Format                                   : UTF-8
Codec ID                                 : S_TEXT/UTF8
Codec ID/Info                            : UTF-8 Plain Text
Duration                                 : 1 h 56 min
Bit rate                                 : 44 b/s
Count of elements                        : 1085
Stream size                              : 38.2 KiB (0%)
Language                                 : English
Default                                  : Yes
Forced                                   : No

Text #2
ID                                       : 5
Format                                   : ASS
Codec ID                                 : S_TEXT/ASS
Codec ID/Info                            : Advanced Sub Station Alpha
Duration                                 : 1 h 56 min
Bit rate                                 : 134 b/s
Count of elements                        : 1211
Compression mode                         : Lossless
Stream size                              : 115 KiB (0%)
Title                                    : chs
Language                                 : Chinese
Default                                  : No
Forced                                   : No

Text #3
ID                                       : 6
Format                                   : ASS
Codec ID                                 : S_TEXT/ASS
Codec ID/Info                            : Advanced Sub Station Alpha
Duration                                 : 1 h 56 min
Bit rate                                 : 134 b/s
Count of elements                        : 1211
Compression mode                         : Lossless
Stream size                              : 115 KiB (0%)
Title                                    : cht
Language                                 : Chinese
Default                                  : No
Forced                                   : No

ae5da1241e06ca93ed4e86f5a9d66200.png

[/url]84cb1ef2abf19f181d5a160fb083a9d1.png

[/url]e0ac19fbc99024365df94936b90d9cd4.png

[/url]



                                                                                                                                                                                                        
                                                                                                                                                                                                                                                                                                                                                                                                                                                                                                                                                                                                                                                                                                                                                                                                                                                        
e7e9ebd63338dd800c85c0271fd2c8a2.torrent (25.53 KB, 下载次数: 0)

回复

使用道具 举报

小黑屋|西西论坛

本网站所有资源来自网络,如无意中侵犯了您的权益,请发邮件至 [email protected],立即清除相关链接

GMT+8, 2021-11-28 10:19 , Processed in 0.111304 second(s), 17 queries .

Powered by Discuz! X3.2

© 2001-2013 Comsenz Inc.

快速回复 返回顶部 返回列表