西西论坛

 找回密码
 立即注册
搜索

无名的战争 The.Undeclared.War.1992.FRENCH.1080p.BluRay.x264.AAC2.0-PTP 19.25GB . ...

[复制链接]
admin 发表于 7 天前 | 显示全部楼层 |阅读模式
无名的战争 The.Undeclared.War.1992.FRENCH.1080p.BluRay.x264.AAC2.0-PTP 19.25GB                                                                                                                                                                                                                                                                                                                                                                                                                                                                                                                                        -->
帖子完整标题:无名的战争 The.Undeclared.War.1992.FRENCH.1080p.BluRay.x264.AAC2.0-PTP 19.25GB



f448de5bbd6737c14ece941166e2887d.jpg



◎译  名 无名的战争/The Undeclared War
◎片  名 La guerre sans nom
◎年  代 1992
◎产  地 法国
◎类  别 纪录片
◎语  言 法语
◎上映日期 1992
◎豆瓣评分 /10 from 0 users
◎豆瓣链接 
◎片  长 France: 240 分钟
◎导  演 贝特朗·塔维涅 Bertrand Tavernier
◎编  剧 帕特里克·罗特曼 Patrick Rotman / 贝特朗·塔维涅 Bertrand Tavernier
◎主  演 帕特里克·罗特曼 Patrick Rotman

◎标  签 纪录片 | 法国 | 1992 | 法国电影 | D贝特朗·塔维涅 | Bertrand_Tavernier | BW | 90年代

◎简  介

  回顾和反思了发生在0世纪中期的阿尔及利亚战争。1951年到1962年,将近300万法国青年参加了一场他们如今不愿提起的战争,这就是阿尔及利亚战争。30年之后,那些从未对外人说过这段战争经历的老兵在摄影机前开始讲述。
Video
ID                                       : 1
Format                                   : AVC
Format/Info                              : Advanced Video Codec
Format profile                           :
Format settings                          : CABAC / 4 Ref Frames
Format settings, CABAC                   : Yes
Format settings, Reference frames        : 4 frames
Codec ID                                 : V_MPEG4/ISO/AVC
Duration                                 : 4 h 6 min
Bit rate                                 : 11.0 Mb/s
Width                                    : 1 800 pixels
Height                                   : 1 080 pixels
Display aspect ratio                     : 5:3
Frame rate mode                          : Constant
Frame rate                               : 24.000 FPS
Color space                              : YUV
Chroma subsampling                       : 4:2:0
Bit depth                                : 8 bits
Scan type                                : Progressive
Bits/(Pixel*Frame)                       : 0.236
Stream size                              : 18.9 GiB (98%)
Writing library                          : x264 core 157 r2935 545de2f
Encoding settings                        : cabac=1 / ref=4 / deblock=1:-3:-3 / analyse=0x3:0x133 / me=umh / subme=10 / psy=1 / psy_rd=1.00:0.00 / mixed_ref=1 / me_range=32 / chroma_me=1 / trellis=2 / 8x8dct=1 / cqm=0 / deadzone=21,11 / fast_pskip=0 / chroma_qp_offset=-2 / threads=18 / lookahead_threads=4 / sliced_threads=0 / nr=0 / decimate=0 / interlaced=0 / bluray_compat=0 / constrained_intra=0 / bframes=16 / b_pyramid=2 / b_adapt=2 / b_bias=0 / direct=3 / weightb=1 / open_gop=0 / weightp=2 / keyint=240 / keyint_min=24 / scenecut=40 / intra_refresh=0 / rc_lookahead=60 / rc=2pass / mbtree=0 / bitrate=11000 / ratetol=1.0 / qcomp=0.60 / qpmin=0 / qpmax=69 / qpstep=4 / cplxblur=20.0 / qblur=0.5 / vbv_maxrate=62500 / vbv_bufsize=78125 / nal_hrd=none / filler=0 / ip_ratio=1.40 / pb_ratio=1.30 / aq=2:1.00
Default                                  : Yes
Forced                                   : No
Color range                              : Limited
Color primaries                          : BT.709
Transfer characteristics                 : BT.709
Matrix coefficients                      : BT.709

Audio
ID                                       : 2
Format                                   : AAC LC
Format/Info                              : Advanced Audio Codec Low Complexity
Codec ID                                 : A_AAC-2
Duration                                 : 4 h 6 min
Bit rate                                 : 139 kb/s
Channel(s)                               : 2 channels
Channel layout                           : L R
Sampling rate                            : 48.0 kHz
Frame rate                               : 46.875 FPS (1024 SPF)
Compression mode                         : Lossy
Stream size                              : 245 MiB (1%)
Language                                 : French
Default                                  : Yes
Forced                                   : No

Text #1
ID                                       : 3
Format                                   : UTF-8
Codec ID                                 : S_TEXT/UTF8
Codec ID/Info                            : UTF-8 Plain Text
Duration                                 : 4 h 5 min
Bit rate                                 : 82 b/s
Count of elements                        : 3556
Stream size                              : 149 KiB (0%)
Language                                 : English
Default                                  : Yes
Forced                                   : No

Text #2
ID                                       : 4
Format                                   : PGS
Muxing mode                              : zlib
Codec ID                                 : S_HDMV/PGS
Codec ID/Info                            : Picture based subtitle format used on BDs/HD-DVDs
Duration                                 : 4 h 5 min
Bit rate                                 : 56.1 kb/s
Count of elements                        : 8168
Stream size                              : 98.7 MiB (0%)
Language                                 : French
Default                                  : No
Forced                                   : No

Text #3
ID                                       : 5
Format                                   : PGS
Muxing mode                              : zlib
Codec ID                                 : S_HDMV/PGS
Codec ID/Info                            : Picture based subtitle format used on BDs/HD-DVDs
Duration                                 : 4 h 3 min
Bit rate                                 : 61.3 kb/s
Count of elements                        : 7574
Stream size                              : 107 MiB (0%)
Language                                 : German
Default                                  : No
Forced                                   : No

Menu
00:00:00.000                             : :Chapter 1
00:20:47.000                             : :Chapter 2
00:43:06.292                             : :Chapter 3
01:02:47.583                             : :Chapter 4
01:20:55.333                             : :Chapter 5
01:41:33.667                             : :Chapter 6
02:01:27.042                             : :Chapter 7
02:23:04.167                             : :Chapter 8
02:45:57.583                             : :Chapter 9
03:04:10.625                             : :Chapter 10
03:26:21.208                             : :Chapter 11
03:46:34.500                             : :Chapter 12

9480003a21e471fbddbfb9079865e398.png

[/url]4d6d8766ea11026a53e9328f6dfba1b6.png

[/url]dcef0d3b192da5e157d6d7b81778d343.png

[/url]



                                                                                                                                                                                                        
                                                                                                                                                                                                                                                                                                                                                                                                                                                                                                                                                                                                                                                                                                                                                                                                                                                        
0727afe6b8240b9633400308a260b2b7.torrent (24.71 KB, 下载次数: 0)

回复

使用道具 举报

小黑屋|西西论坛

本网站所有资源来自网络,如无意中侵犯了您的权益,请发邮件至 [email protected],立即清除相关链接

GMT+8, 2021-11-28 10:21 , Processed in 0.111375 second(s), 17 queries .

Powered by Discuz! X3.2

© 2001-2013 Comsenz Inc.

快速回复 返回顶部 返回列表