西西论坛

 找回密码
 立即注册
搜索

再见福肯伯格 Falkenberg.Farewell.2006.720p.BluRay.x264-USURY 4.33GB

[复制链接]
admin 发表于 2021-11-21 15:40:08 | 显示全部楼层 |阅读模式
再见福肯伯格 Falkenberg.Farewell.2006.720p.BluRay.x264-USURY 4.33GB                                                                                                                                                                                                                                                                                                                                                                                                                                                                                                                                        -->
帖子完整标题:再见福肯伯格 Falkenberg.Farewell.2006.720p.BluRay.x264-USURY 4.33GB



986b7f67322f087aa8169a6b953b46a8.jpg



◎译  名 再见,福肯伯格
◎片  名 Farv?l Falkenberg
◎年  代 2006
◎产  地 瑞典,丹麦
◎类  别 剧情
◎语  言 瑞典语
◎上映日期 2006-09-22(瑞典)
◎豆瓣评分 7.9/10 from 109 users
◎豆瓣链接 
◎片  长 91分钟
◎导  演 贾斯珀·加斯兰特 Jesper Ganslandt
◎编  剧 贾斯珀·加斯兰特 Jesper Ganslandt
◎主  演 贾斯珀·加斯兰特 Jesper Ganslandt
        John Axel Eriksson
        Holger Eriksson

◎标  签 瑞典 | 青春 | 残酷青春 | 北欧 | 瑞典电影 | 2006 | 电影 | 回忆

◎简  介

  这是在福肯伯格最后的一个夏日。五位同年时期的朋友已经成了青年。David渴望再次回到孩童,Holger从来不想离开。两个好朋友逃往森林和大海,抛开未来。Jesper不断的返家,没人真正注意到他已经离开。J?rgen入室盗窃,为他的酒席承办公司"床上早餐"凑集资金。还有John,总是一副怀心情,不过相信熏猪肉能让他快乐。未来隐隐约约呈现出地平线,但是没人会愿意去欣赏它。Falkenberg Farewell —— 是一部关于友谊,回忆和向海滨小镇最终道别的电影。
Video
ID                                       : 1
Format                                   : AVC
Format/Info                              : Advanced Video Codec
Format profile                           :
Format settings                          : CABAC / 12 Ref Frames
Format settings, CABAC                   : Yes
Format settings, Reference frames        : 12 frames
Codec ID                                 : V_MPEG4/ISO/AVC
Duration                                 : 1 h 27 min
Bit rate                                 : 6 396 kb/s
Width                                    : 1 280 pixels
Height                                   : 538 pixels
Display aspect ratio                     : 2.40:1
Frame rate mode                          : Constant
Frame rate                               : 25.000 FPS
Color space                              : YUV
Chroma subsampling                       : 4:2:0
Bit depth                                : 8 bits
Scan type                                : Progressive
Bits/(Pixel*Frame)                       : 0.372
Stream size                              : 3.92 GiB (91%)
Writing library                          : x264 core 164 r3075 66a5bc1
Encoding settings                        : cabac=1 / ref=12 / deblock=1:-3:-3 / analyse=0x3:0x133 / me=umh / subme=10 / psy=1 / psy_rd=1.00:0.15 / mixed_ref=1 / me_range=24 / chroma_me=1 / trellis=2 / 8x8dct=1 / cqm=0 / deadzone=21,11 / fast_pskip=1 / chroma_qp_offset=-3 / threads=17 / lookahead_threads=2 / sliced_threads=0 / nr=0 / decimate=1 / interlaced=0 / bluray_compat=0 / constrained_intra=0 / bframes=8 / b_pyramid=2 / b_adapt=2 / b_bias=0 / direct=3 / weightb=1 / open_gop=0 / weightp=2 / keyint=250 / keyint_min=25 / scenecut=40 / intra_refresh=0 / rc_lookahead=60 / rc=crf / mbtree=1 / crf=17.0 / qcomp=0.60 / qpmin=0 / qpmax=69 / qpstep=4 / ip_ratio=1.40 / aq=3:0.60
Language                                 : English
Default                                  : Yes
Forced                                   : No
Color range                              : Limited
Matrix coefficients                      : BT.709

Audio
ID                                       : 2
Format                                   : AC-3
Format/Info                              : Audio Coding 3
Commercial name                          : Dolby Digital
Codec ID                                 : A_AC3
Duration                                 : 1 h 27 min
Bit rate mode                            : Constant
Bit rate                                 : 640 kb/s
Channel(s)                               : 6 channels
Channel layout                           : L R C LFE Ls Rs
Sampling rate                            : 48.0 kHz
Frame rate                               : 31.250 FPS (1536 SPF)
Compression mode                         : Lossy
Stream size                              : 402 MiB (9%)
Language                                 : Swedish
Service kind                             : Complete Main
Default                                  : Yes
Forced                                   : No

Text #1
ID                                       : 3
Format                                   : UTF-8
Codec ID                                 : S_TEXT/UTF8
Codec ID/Info                            : UTF-8 Plain Text
Duration                                 : 1 h 23 min
Bit rate                                 : 37 b/s
Count of elements                        : 549
Stream size                              : 23.0 KiB (0%)
Title                                    : English
Language                                 : English
Default                                  : Yes
Forced                                   : Yes

Text #2
ID                                       : 4
Format                                   : PGS
Muxing mode                              : zlib
Codec ID                                 : S_HDMV/PGS
Codec ID/Info                            : Picture based subtitle format used on BDs/HD-DVDs
Duration                                 : 1 h 26 min
Bit rate                                 : 10.0 kb/s
Count of elements                        : 962
Stream size                              : 6.24 MiB (0%)
Title                                    : Danish
Language                                 : Danish
Default                                  : No
Forced                                   : No

Text #3
ID                                       : 5
Format                                   : PGS
Muxing mode                              : zlib
Codec ID                                 : S_HDMV/PGS
Codec ID/Info                            : Picture based subtitle format used on BDs/HD-DVDs
Duration                                 : 1 h 26 min
Bit rate                                 : 9 407 b/s
Count of elements                        : 956
Stream size                              : 5.84 MiB (0%)
Title                                    : Finnish
Language                                 : Finnish
Default                                  : No
Forced                                   : No

Text #4
ID                                       : 6
Format                                   : PGS
Muxing mode                              : zlib
Codec ID                                 : S_HDMV/PGS
Codec ID/Info                            : Picture based subtitle format used on BDs/HD-DVDs
Duration                                 : 1 h 26 min
Bit rate                                 : 9 941 b/s
Count of elements                        : 962
Stream size                              : 6.17 MiB (0%)
Title                                    : Norwegian
Language                                 : Norwegian
Default                                  : No
Forced                                   : No

Menu
00:00:00.000                             : en:00:00:00.000
00:12:08.760                             : en:00:12:08.760
00:24:05.640                             : en:00:24:05.640
00:35:31.960                             : en:00:35:31.960
00:47:48.160                             : en:00:47:48.160
00:59:32.960                             : en:00:59:32.960
01:12:31.560                             : en:01:12:31.560
01:23:51.640                             : en:01:23:51.640

dbf798932d57c7a76ee39682d30b7e99.jpg





                                                                                                                                                                                                        
                                                                                                                                                                                                                                                                                                                                                                                                                                                                                                                                                                                                                                                                                                                                                                                                                                                        
f8725d9a917fdf1debc43d03e491b6db.torrent (22.39 KB, 下载次数: 0)

回复

使用道具 举报

小黑屋|西西论坛

本网站所有资源来自网络,如无意中侵犯了您的权益,请发邮件至 [email protected],立即清除相关链接

GMT+8, 2021-12-3 14:40 , Processed in 0.107049 second(s), 17 queries .

Powered by Discuz! X3.2

© 2001-2013 Comsenz Inc.

快速回复 返回顶部 返回列表