西西论坛

 找回密码
 立即注册
搜索

末路狂车 I.Saw.What.You.Did.1988.1080p.BluRay.x264-FREEMAN 10.09GB

[复制链接]
admin 发表于 2021-11-20 21:40:08 | 显示全部楼层 |阅读模式
末路狂车 I.Saw.What.You.Did.1988.1080p.BluRay.x264-FREEMAN 10.09GB                                                                                                                                                                                                                                                                                                                                                                                                                                                                                                                                        -->
帖子完整标题:末路狂车 I.Saw.What.You.Did.1988.1080p.BluRay.x264-FREEMAN 10.09GB



bdecf3503355e40d135af8aac517b159.jpg



◎译  名 末路狂车/Fernsehfilm/Todesspiele
◎片  名 I Saw What You Did
◎年  代 1988
◎产  地 美国
◎类  别 剧情 / 惊悚 / 恐怖
◎语  言 英语
◎上映日期 1988-05-20
◎豆瓣评分 /10 from 0 users
◎豆瓣链接 
◎片  长 93分钟
◎导  演 弗雷德·沃尔顿 Fred Walton
◎编  剧 Cynthia Cidre Cynthia Cidre / 厄休拉·柯蒂斯 Ursula Curtiss
◎主  演 肖妮·史密斯 Shawnee Smith
       Tammy Lauren Tammy Lauren
       坎达丝·卡梅隆·玻儿 Candace Cameron Bure
       罗伯特·卡拉丁 Robert Carradine
       大卫·卡拉丁 David Carradine
       乔·安德森 Jo Anderson
       Bo Brundin Bo Brundin
       阿兰·弗吉 Alan Fudge
       Jim McKrell Jim McKrell
       汤姆·艾德寇科思·埃尔南德斯 Thom Adcox-Hernandez

◎标  签 美国 | 惊悚 | 恐怖 | 血腥 | 美国电影

◎简  介

  暂无相关剧情介绍
Video
ID                                       : 1
Format                                   : AVC
Format/Info                              : Advanced Video Codec
Format profile                           :
Format settings                          : CABAC / 4 Ref Frames
Format settings, CABAC                   : Yes
Format settings, Reference frames        : 4 frames
Codec ID                                 : V_MPEG4/ISO/AVC
Duration                                 : 1 h 33 min
Bit rate                                 : 15.1 Mb/s
Width                                    : 1 440 pixels
Height                                   : 1 080 pixels
Display aspect ratio                     : 4:3
Frame rate mode                          : Constant
Frame rate                               : 23.976 (24000/1001/189150) FPS
Color space                              : YUV
Chroma subsampling                       : 4:2:0
Bit depth                                : 8 bits
Scan type                                : Progressive
Bits/(Pixel*Frame)                       : 0.405
Stream size                              : 9.87 GiB (98%)
Writing library                          : x264 core 164 r3075 66a5bc1
Encoding settings                        : cabac=1 / ref=4 / deblock=1:-3:-3 / analyse=0x3:0x133 / me=umh / subme=9 / psy=1 / psy_rd=1.00:0.00 / mixed_ref=1 / me_range=16 / chroma_me=1 / trellis=2 / 8x8dct=1 / cqm=0 / deadzone=21,11 / fast_pskip=0 / chroma_qp_offset=-2 / threads=24 / lookahead_threads=2 / sliced_threads=0 / nr=0 / decimate=1 / interlaced=0 / bluray_compat=0 / constrained_intra=0 / bframes=3 / b_pyramid=2 / b_adapt=2 / b_bias=0 / direct=3 / weightb=1 / open_gop=0 / weightp=2 / keyint=250 / keyint_min=23 / scenecut=40 / intra_refresh=0 / rc_lookahead=60 / rc=crf / mbtree=1 / crf=19.0 / qcomp=0.60 / qpmin=0 / qpmax=69 / qpstep=4 / ip_ratio=1.40 / aq=3:0.60
Default                                  : Yes
Forced                                   : No
Color range                              : Limited
Matrix coefficients                      : BT.709

Audio
ID                                       : 2
Format                                   : FLAC
Format/Info                              : Free Lossless Audio Codec
Codec ID                                 : A_FLAC
Duration                                 : 1 h 33 min
Bit rate mode                            : Variable
Bit rate                                 : 331 kb/s
Channel(s)                               : 1 channel
Channel layout                           : C
Sampling rate                            : 48.0 kHz
Frame rate                               : 11.719 FPS (4096 SPF)
Bit depth                                : 16 bits
Compression mode                         : Lossless
Stream size                              : 222 MiB (2%)
Writing library                          : libFLAC 1.2.1 (UTC 2007-09-17)
Language                                 : English
Default                                  : Yes
Forced                                   : No

Menu
00:00:00.000                             : en:00:00:00.000
00:03:10.315                             : en:00:03:10.315
00:15:18.417                             : en:00:15:18.417
00:24:30.344                             : en:00:24:30.344
00:33:28.965                             : en:00:33:28.965
00:45:57.254                             : en:00:45:57.254
00:56:22.713                             : en:00:56:22.713
01:16:27.583                             : en:01:16:27.583
01:32:34.674                             : en:01:32:34.674

63dc563069bbca3e72c3877b8899ebd9.jpg





                                                                                                                                                                                                        
                                                                                                                                                                                                                                                                                                                                                                                                                                                                                                                                                                                                                                                                                                                                                                                                                                                        
6cc3ca4cf1f26bcefd43d172d15ed080.torrent (13.32 KB, 下载次数: 0)

回复

使用道具 举报

小黑屋|西西论坛

本网站所有资源来自网络,如无意中侵犯了您的权益,请发邮件至 [email protected],立即清除相关链接

GMT+8, 2021-11-28 10:36 , Processed in 0.105264 second(s), 17 queries .

Powered by Discuz! X3.2

© 2001-2013 Comsenz Inc.

快速回复 返回顶部 返回列表