西西论坛

 找回密码
 立即注册
搜索

塔米·菲的眼睛 The.Eyes.of.Tammy.Faye.2021.1080p.BluRay.x264-WoAT 15.39GB

[复制链接]
admin 发表于 2021-11-20 21:40:01 | 显示全部楼层 |阅读模式
塔米·菲的眼睛 The.Eyes.of.Tammy.Faye.2021.1080p.BluRay.x264-WoAT 15.39GB                                                                                                                                                                                                                                                                                                                                                                                                                                                                                                                                        -->
帖子完整标题:塔米·菲的眼睛 The.Eyes.of.Tammy.Faye.2021.1080p.BluRay.x264-WoAT 15.39GB



6be1e075acdd41f9d4d700565d3ed749.jpg



◎译  名 塔米·菲的眼睛
◎片  名 The Eyes of Tammy Faye
◎年  代 2021
◎产  地 美国,加拿大
◎类  别 剧情 / 传记
◎语  言 英语
◎上映日期 2021-09-12(多伦多电影节) / 2021-09-17(美国)
◎豆瓣评分 6.7/10 from 377 users
◎豆瓣链接 
◎片  长 126分钟
◎导  演 迈克尔·肖沃特 Michael Showalter
◎主  演 杰西卡·查斯坦 Jessica Chastain
       安德鲁·加菲尔德 Andrew Garfield
       文森特·多诺费奥 Vincent D'Onofrio
       切莉·琼斯 Cherry Jones
       山姆·贾格 Sam Jaeger
       弗瑞德里克·林恩 Fredric Lehne
       加布里埃尔·奥尔德斯 Gabriel Olds
       钱德勒·海德 Chandler Head
       林赛·艾利夫 Lindsay Ayliffe
       杰伊·胡古雷 Jay Huguley
       马克·怀斯特拉克 Mark Wystrach
       布伦特·莫雷尔·加斯金斯 Brent Moorer Gaskins
       柯莉·坎帕尼 Coley Campany
       Drew Broderick Drew Broderick

◎标  签 传记 | 美国 | 2021 | 剧情 | 宗教 | 婚姻 | 加拿大 | 加菲

◎简  介

  《综艺》报道:杰西卡·查斯坦与安德鲁·加菲尔德将出演[福斯探照灯]传记片《#塔米·菲的眼睛#》(Eyes of Tammy Faye)。该作品改编自2000年同名纪录片,讲述塔米·菲(杰西卡·查斯坦 饰)和吉姆·贝克(安德鲁·加菲尔德 饰)这对夫妇作为电视福音布道家的大起大落。在上世纪70-80年代,塔米·菲和吉姆·贝克从贫寒中奋起,创建了当时世界上最庞大的宗教广播电视网和一个主题公园,从而受人敬仰。不过好景不长,经济上的不当行为、诡计多端的竞争对手以及性丑闻的爆发使得这对夫妇的婚姻破裂,导致他们精心构建起来的帝国从而崩塌。影片将由“大病”导演迈克尔·肖沃特执导。杰西卡·查斯坦会担任本片制片人。

◎获奖情况

  第69届圣塞巴斯蒂安国际电影节 ?(2021)
  金贝壳奖(提名) 迈克尔·肖沃特
  最佳主角表演 杰西卡·查斯坦
Video
ID                                       : 1
Format                                   : AVC
Format/Info                              : Advanced Video Codec
Format profile                           :
Format settings                          : CABAC / 4 Ref Frames
Format settings, CABAC                   : Yes
Format settings, Reference frames        : 4 frames
Codec ID                                 : V_MPEG4/ISO/AVC
Duration                                 : 2 h 6 min
Bit rate                                 : 14.2 Mb/s
Width                                    : 1 920 pixels
Height                                   : 1 036 pixels
Display aspect ratio                     : 1.85:1
Frame rate mode                          : Constant
Frame rate                               : 23.976 (24000/1001/189150) FPS
Color space                              : YUV
Chroma subsampling                       : 4:2:0
Bit depth                                : 8 bits
Scan type                                : Progressive
Bits/(Pixel*Frame)                       : 0.297
Stream size                              : 12.5 GiB (81%)
Writing library                          : x264 core 164 r3075 66a5bc1
Encoding settings                        : cabac=1 / ref=4 / deblock=1:-3:-3 / analyse=0x3:0x133 / me=umh / subme=9 / psy=1 / psy_rd=1.00:0.00 / mixed_ref=1 / me_range=32 / chroma_me=1 / trellis=2 / 8x8dct=1 / cqm=0 / deadzone=21,11 / fast_pskip=0 / chroma_qp_offset=-2 / threads=16 / lookahead_threads=2 / sliced_threads=0 / nr=0 / decimate=0 / interlaced=0 / bluray_compat=0 / constrained_intra=0 / bframes=8 / b_pyramid=2 / b_adapt=2 / b_bias=0 / direct=3 / weightb=1 / open_gop=0 / weightp=2 / keyint=250 / keyint_min=23 / scenecut=40 / intra_refresh=0 / rc_lookahead=60 / rc=crf / mbtree=1 / crf=16.0 / qcomp=0.60 / qpmin=0 / qpmax=69 / qpstep=4 / ip_ratio=1.40 / aq=3:0.88
Default                                  : Yes
Forced                                   : No
Color range                              : Limited
Matrix coefficients                      : BT.709

Audio
ID                                       : 2
Format                                   : DTS XLL
Format/Info                              : Digital Theater Systems
Commercial name                          : DTS-HD Master Audio
Codec ID                                 : A_DTS
Duration                                 : 2 h 6 min
Bit rate mode                            : Variable
Bit rate                                 : 3 163 kb/s
Channel(s)                               : 6 channels
Channel layout                           : C L R Ls Rs LFE
Sampling rate                            : 48.0 kHz
Frame rate                               : 93.750 FPS (512 SPF)
Bit depth                                : 24 bits
Compression mode                         : Lossless
Stream size                              : 2.80 GiB (18%)
Title                                    : English
Language                                 : English
Default                                  : No
Forced                                   : No

Text #1
ID                                       : 3
Format                                   : PGS
Muxing mode                              : zlib
Codec ID                                 : S_HDMV/PGS
Codec ID/Info                            : Picture based subtitle format used on BDs/HD-DVDs
Duration                                 : 1 h 59 min
Bit rate                                 : 63.9 kb/s
Count of elements                        : 4914
Stream size                              : 54.9 MiB (0%)
Title                                    : English
Language                                 : English
Default                                  : No
Forced                                   : No

Text #2
ID                                       : 4
Format                                   : PGS
Muxing mode                              : zlib
Codec ID                                 : S_HDMV/PGS
Codec ID/Info                            : Picture based subtitle format used on BDs/HD-DVDs
Duration                                 : 2 h 5 min
Bit rate                                 : 44.4 kb/s
Count of elements                        : 3878
Stream size                              : 39.8 MiB (0%)
Title                                    : French
Language                                 : French
Default                                  : No
Forced                                   : No

Text #3
ID                                       : 5
Format                                   : PGS
Muxing mode                              : zlib
Codec ID                                 : S_HDMV/PGS
Codec ID/Info                            : Picture based subtitle format used on BDs/HD-DVDs
Duration                                 : 1 h 57 min
Bit rate                                 : 1 295 b/s
Count of elements                        : 88
Stream size                              : 1.08 MiB (0%)
Title                                    : French (forced text)
Language                                 : French
Default                                  : No
Forced                                   : No

Text #4
ID                                       : 6
Format                                   : PGS
Muxing mode                              : zlib
Codec ID                                 : S_HDMV/PGS
Codec ID/Info                            : Picture based subtitle format used on BDs/HD-DVDs
Duration                                 : 1 h 59 min
Bit rate                                 : 51.5 kb/s
Count of elements                        : 4158
Stream size                              : 44.0 MiB (0%)
Title                                    : Spanish
Language                                 : Spanish
Default                                  : No
Forced                                   : No

Menu
00:00:00.000                             : Chapter 01
00:03:31.044                             : Chapter 02
00:07:37.290                             : Chapter 03
00:14:47.303                             : Chapter 04
00:21:36.462                             : Chapter 05
00:22:46.949                             : Chapter 06
00:25:51.675                             : Chapter 07
00:32:18.854                             : Chapter 08
00:40:06.696                             : Chapter 09
00:45:47.662                             : Chapter 10
00:50:21.227                             : Chapter 11
00:58:48.859                             : Chapter 12
01:04:50.011                             : Chapter 13
01:11:28.576                             : Chapter 14
01:16:55.611                             : Chapter 15
01:23:39.264                             : Chapter 16
01:33:23.056                             : Chapter 17
01:41:12.525                             : Chapter 18
01:43:02.176                             : Chapter 19
01:47:07.212                             : Chapter 20
01:50:47.975                             : Chapter 21
01:52:09.890                             : Chapter 22
01:59:36.044                             : Chapter 23
02:00:32.058                             : Chapter 24





                                                                                                                                                                                                        
                                                                                                                                                                                                                                                                                                                                                                                                                                                                                                                                                                                                                                                                                                                                                                                                                                                        
c4702aad8e7b911dfcda6067533ee31f.torrent (20.06 KB, 下载次数: 0)

回复

使用道具 举报

小黑屋|西西论坛

本网站所有资源来自网络,如无意中侵犯了您的权益,请发邮件至 [email protected],立即清除相关链接

GMT+8, 2021-11-28 09:52 , Processed in 0.142624 second(s), 17 queries .

Powered by Discuz! X3.2

© 2001-2013 Comsenz Inc.

快速回复 返回顶部 返回列表