西西论坛

 找回密码
 立即注册
搜索

边缘状态/流亡边界 Limbo.2020.1080p.BluRay.x264-SCARE 12.92GB

[复制链接]
admin 发表于 2021-11-20 09:39:21 | 显示全部楼层 |阅读模式
边缘状态/流亡边界 Limbo.2020.1080p.BluRay.x264-SCARE 12.92GB                                                                                                                                                                                                                                                                                                                                                                                                                                                                                                                                        -->
帖子完整标题:边缘状态/流亡边界 Limbo.2020.1080p.BluRay.x264-SCARE 12.92GB



5404eab8f38cb441b311f832d38169d6.jpg



◎译  名 边缘状态/流亡边界
◎片  名 Limbo
◎年  代 2020
◎产  地 英国
◎类  别 剧情
◎语  言 英语,阿拉伯语
◎上映日期 2020-07-09(戛纳电影节) / 2020-09-12(多伦多电影节) / 2021-04-30(美国)
◎豆瓣评分 7.5/10 from 1164 users
◎豆瓣链接 
◎片  长 103分钟
◎导  演 本·夏罗克 Ben Sharrock
◎编  剧 本·夏罗克 Ben Sharrock
◎主  演 埃米尔·艾尔-马斯里 Amir El-Masry
       西瑟·巴比特·科努德森 Sidse Babett Knudsen
       刘易斯·格里本 Lewis Gribben
       埃莉·哈丁顿 Ellie Haddington
       卡伊斯·纳塞夫 Kais Nashef
       卡梅隆·富尔顿 Cameron Fulton
       西尔维·弗诺 Silvie Furneaux
       豪尔赫·吉迪 Jorge Gidi
       桑吉弗·科赫利 Sanjeev Kohli
       雷蒙德·梅恩斯 Raymond Mearns
       奥拉·奥雷比伊 Ola Orebiyi
       维卡什·拜 Vikash Bhai
       夸贝纳·安萨 Kwabena Ansah
       肯尼斯·克拉德 Kenneth Collard
       格蕾丝·奇尔顿 Grace Chilton

◎标  签 英国 | 2020 | 社会 | 剧情 | 戛纳 | 喜剧 | 难民 | 成长

◎简  介

  故事是对在苏格兰岛上等待庇护的难民的一次另类观察。 它聚焦于一位背负重担背离祖国的年轻叙利亚音乐家奥马尔。

◎获奖情况

  第73届戛纳电影节 ?(2020)
  首次入围戛纳导演作品(提名)
  
  第74届英国电影学院奖 ?(2021)
  电影奖最佳英国影片(提名) 本·夏罗克
  电影奖英国本土杰出处女作(提名) 本·夏罗克?/?伊鲁恩·格尔图拜
  
  第45届多伦多国际电影节 ?(2020)
  发现奖(提名)
  
  第68届圣塞巴斯蒂安国际电影节 ?(2020)
  最佳新导演(提名) 本·夏罗克
  
  第23届英国独立电影奖 ?(2020)
  最佳男主角(提名) 埃米尔·艾尔-马斯里
  制片突破
  最佳选角(提名)
  最佳摄影(提名)
Video
ID                                       : 1
Format                                   : AVC
Format/Info                              : Advanced Video Codec
Format profile                           :
Format settings                          : CABAC / 4 Ref Frames
Format settings, CABAC                   : Yes
Format settings, Reference frames        : 4 frames
Codec ID                                 : V_MPEG4/ISO/AVC
Duration                                 : 1 h 44 min
Bit rate                                 : 14.8 Mb/s
Width                                    : 1 920 pixels
Height                                   : 1 080 pixels
Display aspect ratio                     : 16:9
Frame rate mode                          : Constant
Frame rate                               : 24.000 FPS
Color space                              : YUV
Chroma subsampling                       : 4:2:0
Bit depth                                : 8 bits
Scan type                                : Progressive
Bits/(Pixel*Frame)                       : 0.296
Stream size                              : 10.8 GiB (83%)
Writing library                          : x264 core 164 r3065 ae03d92
Encoding settings                        : cabac=1 / ref=4 / deblock=1:-3:-3 / analyse=0x3:0x133 / me=umh / subme=10 / psy=1 / psy_rd=1.20:0.00 / mixed_ref=1 / me_range=24 / chroma_me=1 / trellis=2 / 8x8dct=1 / cqm=0 / deadzone=21,11 / fast_pskip=0 / chroma_qp_offset=-2 / threads=24 / lookahead_threads=4 / sliced_threads=0 / nr=0 / decimate=0 / interlaced=0 / bluray_compat=0 / constrained_intra=0 / bframes=8 / b_pyramid=2 / b_adapt=2 / b_bias=0 / direct=3 / weightb=1 / open_gop=0 / weightp=2 / keyint=250 / keyint_min=24 / scenecut=40 / intra_refresh=0 / rc_lookahead=60 / rc=crf / mbtree=1 / crf=17.0 / qcomp=0.60 / qpmin=0 / qpmax=69 / qpstep=4 / ip_ratio=1.40 / aq=3:0.90
Default                                  : Yes
Forced                                   : No
Color range                              : Limited
Matrix coefficients                      : BT.709

Audio
ID                                       : 2
Format                                   : DTS XLL
Format/Info                              : Digital Theater Systems
Commercial name                          : DTS-HD Master Audio
Codec ID                                 : A_DTS
Duration                                 : 1 h 44 min
Bit rate mode                            : Variable
Bit rate                                 : 2 957 kb/s
Channel(s)                               : 6 channels
Channel layout                           : C L R Ls Rs LFE
Sampling rate                            : 48.0 kHz
Frame rate                               : 93.750 FPS (512 SPF)
Bit depth                                : 24 bits
Compression mode                         : Lossless
Stream size                              : 2.15 GiB (17%)
Language                                 : Arabic
Default                                  : Yes
Forced                                   : No

Text #1
ID                                       : 3
Format                                   : UTF-8
Codec ID                                 : S_TEXT/UTF8
Codec ID/Info                            : UTF-8 Plain Text
Duration                                 : 1 h 27 min
Bit rate                                 : 13 b/s
Count of elements                        : 285
Stream size                              : 8.94 KiB (0%)
Title                                    : English (Forced)
Language                                 : English
Default                                  : Yes
Forced                                   : Yes

Text #2
ID                                       : 4
Format                                   : PGS
Muxing mode                              : zlib
Codec ID                                 : S_HDMV/PGS
Codec ID/Info                            : Picture based subtitle format used on BDs/HD-DVDs
Duration                                 : 1 h 43 min
Bit rate                                 : 22.4 kb/s
Count of elements                        : 1638
Stream size                              : 16.6 MiB (0%)
Title                                    : SDH
Language                                 : English
Default                                  : No
Forced                                   : No

Text #3
ID                                       : 5
Format                                   : PGS
Muxing mode                              : zlib
Codec ID                                 : S_HDMV/PGS
Codec ID/Info                            : Picture based subtitle format used on BDs/HD-DVDs
Duration                                 : 1 h 27 min
Bit rate                                 : 6 224 b/s
Count of elements                        : 396
Stream size                              : 3.89 MiB (0%)
Language                                 : English
Default                                  : No
Forced                                   : No

Menu
00:00:00.000                             : Chapter 01
00:10:41.917                             : Chapter 02
00:21:49.583                             : Chapter 03
00:30:41.958                             : Chapter 04
00:39:45.583                             : Chapter 05
00:48:58.417                             : Chapter 06
00:59:54.500                             : Chapter 07
01:11:00.500                             : Chapter 08
01:19:18.833                             : Chapter 09
01:28:16.500                             : Chapter 10
01:38:54.500                             : Chapter 11
01:44:19.833                             : Chapter 12

1c05384a6730c478ebf1d396965a7970.jpg





                                                                                                                                                                                                        
                                                                                                                                                                                                                                                                                                                                                                                                                                                                                                                                                                                                                                                                                                                                                                                                                                                        
8f22f4fbaeda9d273c62cbbadbf43588.torrent (16.91 KB, 下载次数: 0)

回复

使用道具 举报

小黑屋|西西论坛

本网站所有资源来自网络,如无意中侵犯了您的权益,请发邮件至 [email protected],立即清除相关链接

GMT+8, 2021-11-28 11:28 , Processed in 0.124447 second(s), 17 queries .

Powered by Discuz! X3.2

© 2001-2013 Comsenz Inc.

快速回复 返回顶部 返回列表