西西论坛

 找回密码
 立即注册
搜索

地表惊旅 In.the.Earth.2021.1080p.BluRay.x264-SCARE 11.11GB

[复制链接]
admin 发表于 2021-11-20 09:39:17 | 显示全部楼层 |阅读模式
地表惊旅 In.the.Earth.2021.1080p.BluRay.x264-SCARE 11.11GB                                                                                                                                                                                                                                                                                                                                                                                                                                                                                                                                        -->
帖子完整标题:地表惊旅 In.the.Earth.2021.1080p.BluRay.x264-SCARE 11.11GB



fb65ab451a6f4fb9df9a894a381e7641.jpg



◎译  名 地表惊旅
◎片  名 In the Earth
◎年  代 2021
◎产  地 英国
◎类  别 恐怖
◎语  言 英语
◎上映日期 2021-01-29(圣丹斯电影节) / 2021-04-23(美国)
◎豆瓣评分 5.1/10 from 433 users
◎豆瓣链接 
◎片  长 100分钟
◎导  演 本·维特利  Ben Wheatley
◎编  剧 本·维特利  Ben Wheatley
◎主  演 乔尔·弗莱 Joel Fry
       里斯·谢尔史密斯 Reece Shearsmith
       海莉·斯奎尔斯 Hayley Squires
       埃洛拉·托尔基亚 Ellora Torchia
       马克·蒙迪欧 Mark Monero
       约翰·霍林沃思 John Hollingworth

◎标  签 恐怖 | 英国 | 惊悚 | 2021 | 悬疑 | 灾难 | 英影 | Ben_Wheatley

◎简  介

  讲述当全世界都在寻找一种可以治愈灾难性病毒的方法时,一名科学家和一名公园侦察员,便在森林深处冒险进行常规设备运行。一整夜,他们的旅程变成了穿越黑暗之心的恐怖旅程,森林环绕着他们疯狂生长。
Video
ID                                       : 1
Format                                   : AVC
Format/Info                              : Advanced Video Codec
Format profile                           :
Format settings                          : CABAC / 5 Ref Frames
Format settings, CABAC                   : Yes
Format settings, Reference frames        : 5 frames
Codec ID                                 : V_MPEG4/ISO/AVC
Duration                                 : 1 h 47 min
Bit rate                                 : 10.9 Mb/s
Width                                    : 1 920 pixels
Height                                   : 802 pixels
Display aspect ratio                     : 2.40:1
Frame rate mode                          : Constant
Frame rate                               : 23.976 (24000/1001/189150) FPS
Color space                              : YUV
Chroma subsampling                       : 4:2:0
Bit depth                                : 8 bits
Scan type                                : Progressive
Bits/(Pixel*Frame)                       : 0.296
Stream size                              : 8.23 GiB (74%)
Writing library                          : x264 core 164 r3065 ae03d92
Encoding settings                        : cabac=1 / ref=5 / deblock=1:-3:-3 / analyse=0x3:0x133 / me=umh / subme=10 / psy=1 / psy_rd=1.20:0.00 / mixed_ref=1 / me_range=24 / chroma_me=1 / trellis=2 / 8x8dct=1 / cqm=0 / deadzone=21,11 / fast_pskip=0 / chroma_qp_offset=-2 / threads=24 / lookahead_threads=4 / sliced_threads=0 / nr=0 / decimate=0 / interlaced=0 / bluray_compat=0 / constrained_intra=0 / bframes=8 / b_pyramid=2 / b_adapt=2 / b_bias=0 / direct=3 / weightb=1 / open_gop=0 / weightp=2 / keyint=250 / keyint_min=23 / scenecut=40 / intra_refresh=0 / rc_lookahead=60 / rc=crf / mbtree=1 / crf=16.0 / qcomp=0.60 / qpmin=0 / qpmax=69 / qpstep=4 / ip_ratio=1.40 / aq=3:0.90
Default                                  : Yes
Forced                                   : No
Color range                              : Limited
Matrix coefficients                      : BT.709

Audio
ID                                       : 2
Format                                   : DTS XLL
Format/Info                              : Digital Theater Systems
Commercial name                          : DTS-HD Master Audio
Codec ID                                 : A_DTS
Duration                                 : 1 h 47 min
Bit rate mode                            : Variable
Bit rate                                 : 3 816 kb/s
Channel(s)                               : 6 channels
Channel layout                           : C L R Ls Rs LFE
Sampling rate                            : 48.0 kHz
Frame rate                               : 93.750 FPS (512 SPF)
Bit depth                                : 24 bits
Compression mode                         : Lossless
Stream size                              : 2.87 GiB (26%)
Language                                 : English
Default                                  : Yes
Forced                                   : No

Text
ID                                       : 3
Format                                   : PGS
Muxing mode                              : zlib
Codec ID                                 : S_HDMV/PGS
Codec ID/Info                            : Picture based subtitle format used on BDs/HD-DVDs
Duration                                 : 1 h 42 min
Bit rate                                 : 33.5 kb/s
Count of elements                        : 2182
Stream size                              : 24.4 MiB (0%)
Title                                    : SDH
Language                                 : English
Default                                  : No
Forced                                   : No

Menu
00:00:00.000                             : Chapter 01
00:03:59.072                             : Chapter 02
00:10:02.477                             : Chapter 03
00:14:31.662                             : Chapter 04
00:20:31.147                             : Chapter 05
00:25:38.704                             : Chapter 06
00:28:25.454                             : Chapter 07
00:31:40.107                             : Chapter 08
00:39:23.027                             : Chapter 09
00:46:20.361                             : Chapter 10
00:50:50.756                             : Chapter 11
00:55:13.435                             : Chapter 12
01:02:19.069                             : Chapter 13
01:07:33.508                             : Chapter 14
01:15:59.263                             : Chapter 15
01:20:56.060                             : Chapter 16
01:26:34.398                             : Chapter 17
01:30:25.629                             : Chapter 18
01:37:53.117                             : Chapter 19
01:43:18.150                             : Chapter 20
01:47:38.243                             : Chapter 21

a5402f68ba4ab91f14f08ff4d162c730.jpg





                                                                                                                                                                                                        
                                                                                                                                                                                                                                                                                                                                                                                                                                                                                                                                                                                                                                                                                                                                                                                                                                                        
d520a77cf0482a520362843dd8fc0610.torrent (14.69 KB, 下载次数: 0)

回复

使用道具 举报

小黑屋|西西论坛

本网站所有资源来自网络,如无意中侵犯了您的权益,请发邮件至 [email protected],立即清除相关链接

GMT+8, 2021-11-28 11:19 , Processed in 0.092056 second(s), 17 queries .

Powered by Discuz! X3.2

© 2001-2013 Comsenz Inc.

快速回复 返回顶部 返回列表