西西论坛

 找回密码
 立即注册
搜索

东方/血战东印度 The.East.2020.DUBBED.1080p.BluRay.x264-WoAT 11.69GB

[复制链接]
admin 发表于 2021-11-20 09:39:15 | 显示全部楼层 |阅读模式
东方/血战东印度 The.East.2020.DUBBED.1080p.BluRay.x264-WoAT 11.69GB                                                                                                                                                                                                                                                                                                                                                                                                                                                                                                                                        -->
帖子完整标题:东方/血战东印度 The.East.2020.DUBBED.1080p.BluRay.x264-WoAT 11.69GB



bca130acaee24ad68313ab22e50fce72.jpg



◎译  名 东方/血战东印度(台)
◎片  名 De Oost
◎年  代 2020
◎产  地 荷兰
◎类  别 剧情 / 战争
◎语  言 荷兰语,印尼语
◎上映日期 2020-09-10(荷兰)
◎豆瓣评分 7.0/10 from 468 users
◎豆瓣链接 
◎片  长 141分钟
◎导  演 吉姆·泰华图 Jim Taihuttu
◎主  演 马尔万·肯扎里 Marwan Kenzari
       休·史密特 Huub Smit
       马汀·雷克梅尔 Martijn Lakemeier
       乔纳斯·斯莫德斯 Jonas Smulders
       科恩·布里尔 Coen Bril
       戴维·沃斯特斯 David Wristers

◎标  签 战争 | 荷兰 | 荷兰电影 | 2020 | 暴力 | 欧洲 | 动作 | 欧洲电影

◎简  介

  一名年轻的荷兰士兵被部署在荷兰的印度尼西亚殖民地镇压二战后的独立运动,当他加入越来越无情的指挥官精英小队时,他发现自己在责任和良心之间左右为难。
Video
ID                                       : 1
Format                                   : AVC
Format/Info                              : Advanced Video Codec
Format profile                           :
Format settings                          : CABAC / 4 Ref Frames
Format settings, CABAC                   : Yes
Format settings, Reference frames        : 4 frames
Codec ID                                 : V_MPEG4/ISO/AVC
Duration                                 : 2 h 21 min
Bit rate                                 : 10.1 Mb/s
Width                                    : 1 920 pixels
Height                                   : 1 036 pixels
Display aspect ratio                     : 1.85:1
Frame rate mode                          : Constant
Frame rate                               : 23.976 (24000/1001/189150) FPS
Color space                              : YUV
Chroma subsampling                       : 4:2:0
Bit depth                                : 8 bits
Scan type                                : Progressive
Bits/(Pixel*Frame)                       : 0.211
Stream size                              : 9.94 GiB (85%)
Writing library                          : x264 core 164 r3075 66a5bc1
Encoding settings                        : cabac=1 / ref=4 / deblock=1:-3:-3 / analyse=0x3:0x133 / me=umh / subme=9 / psy=1 / psy_rd=1.00:0.00 / mixed_ref=1 / me_range=32 / chroma_me=1 / trellis=2 / 8x8dct=1 / cqm=0 / deadzone=21,11 / fast_pskip=0 / chroma_qp_offset=-2 / threads=16 / lookahead_threads=2 / sliced_threads=0 / nr=0 / decimate=0 / interlaced=0 / bluray_compat=0 / constrained_intra=0 / bframes=8 / b_pyramid=2 / b_adapt=2 / b_bias=0 / direct=3 / weightb=1 / open_gop=0 / weightp=2 / keyint=250 / keyint_min=23 / scenecut=40 / intra_refresh=0 / rc_lookahead=60 / rc=crf / mbtree=1 / crf=18.0 / qcomp=0.60 / qpmin=0 / qpmax=69 / qpstep=4 / ip_ratio=1.40 / aq=3:0.88
Default                                  : Yes
Forced                                   : No
Color range                              : Limited
Color primaries                          : BT.709
Transfer characteristics                 : BT.709
Matrix coefficients                      : BT.709

Audio
ID                                       : 2
Format                                   : DTS XLL
Format/Info                              : Digital Theater Systems
Commercial name                          : DTS-HD Master Audio
Codec ID                                 : A_DTS
Duration                                 : 2 h 21 min
Bit rate mode                            : Variable
Bit rate                                 : 1 727 kb/s
Channel(s)                               : 6 channels
Channel layout                           : C L R Ls Rs LFE
Sampling rate                            : 48.0 kHz
Frame rate                               : 93.750 FPS (512 SPF)
Bit depth                                : 16 bits
Compression mode                         : Lossless
Stream size                              : 1.70 GiB (15%)
Title                                    : English
Language                                 : English
Default                                  : No
Forced                                   : No

Text #1
ID                                       : 3
Format                                   : PGS
Muxing mode                              : zlib
Codec ID                                 : S_HDMV/PGS
Codec ID/Info                            : Picture based subtitle format used on BDs/HD-DVDs
Duration                                 : 2 h 16 min
Bit rate                                 : 45.2 kb/s
Count of elements                        : 2564
Stream size                              : 44.2 MiB (0%)
Title                                    : English (non-SDH)
Language                                 : English
Default                                  : No
Forced                                   : No

Text #2
ID                                       : 4
Format                                   : PGS
Muxing mode                              : zlib
Codec ID                                 : S_HDMV/PGS
Codec ID/Info                            : Picture based subtitle format used on BDs/HD-DVDs
Duration                                 : 2 h 15 min
Bit rate                                 : 1 423 b/s
Count of elements                        : 106
Stream size                              : 1.38 MiB (0%)
Title                                    : English (forced text)
Language                                 : English
Default                                  : No
Forced                                   : No

Text #3
ID                                       : 5
Format                                   : PGS
Muxing mode                              : zlib
Codec ID                                 : S_HDMV/PGS
Codec ID/Info                            : Picture based subtitle format used on BDs/HD-DVDs
Duration                                 : 2 h 17 min
Bit rate                                 : 53.6 kb/s
Count of elements                        : 3002
Stream size                              : 52.5 MiB (0%)
Title                                    : English (SDH)
Language                                 : English
Default                                  : No
Forced                                   : No

Text #4
ID                                       : 6
Format                                   : UTF-8
Codec ID                                 : S_TEXT/UTF8
Codec ID/Info                            : UTF-8 Plain Text
Duration                                 : 2 h 15 min
Bit rate                                 : 1 b/s
Count of elements                        : 53
Stream size                              : 1.43 KiB (0%)
Title                                    : English (forced text)
Language                                 : English
Default                                  : Yes
Forced                                   : Yes

Menu
00:00:00.000                             : Chapter 01
00:08:17.789                             : Chapter 02
00:15:37.937                             : Chapter 03
00:24:40.479                             : Chapter 04
00:34:05.043                             : Chapter 05
00:42:06.524                             : Chapter 06
00:51:34.091                             : Chapter 07
00:59:38.575                             : Chapter 08
01:09:33.169                             : Chapter 09
01:19:33.769                             : Chapter 10
01:30:24.419                             : Chapter 11
01:38:35.910                             : Chapter 12
01:48:33.507                             : Chapter 13
01:55:42.936                             : Chapter 14
02:05:02.495                             : Chapter 15
02:15:38.339                             : Chapter 16

84fbe590f590266ef067c8a5ba577a17.jpg





                                                                                                                                                                                                        
                                                                                                                                                                                                                                                                                                                                                                                                                                                                                                                                                                                                                                                                                                                                                                                                                                                        
6be324068a90b3fa7208cfc8d7fe6ae9.torrent (15.4 KB, 下载次数: 0)

回复

使用道具 举报

小黑屋|西西论坛

本网站所有资源来自网络,如无意中侵犯了您的权益,请发邮件至 [email protected],立即清除相关链接

GMT+8, 2021-11-28 11:09 , Processed in 0.138257 second(s), 17 queries .

Powered by Discuz! X3.2

© 2001-2013 Comsenz Inc.

快速回复 返回顶部 返回列表