西西论坛

 找回密码
 立即注册
搜索

梦马/神马逐梦 追风逐梦 Dream.Horse.2020.1080p.BluRay.x264-KNiVES 8.36GB ... ...

[复制链接]
admin 发表于 2021-11-20 09:39:09 | 显示全部楼层 |阅读模式
梦马/神马逐梦 追风逐梦 Dream.Horse.2020.1080p.BluRay.x264-KNiVES 8.36GB                                                                                                                                                                                                                                                                                                                                                                                                                                                                                                                                        -->
帖子完整标题:梦马/神马逐梦 追风逐梦 Dream.Horse.2020.1080p.BluRay.x264-KNiVES 8.36GB



e0b80ef2a51fe3c0c0342f403f5edb89.jpg



◎译  名 梦马/神马逐梦 追风逐梦
◎片  名 Dream Horse
◎年  代 2020
◎产  地 英国
◎类  别 喜剧
◎语  言 英语
◎上映日期 2020-01-24(圣丹斯电影节) / 2021-05-21(美国)
◎豆瓣评分 6.7/10 from 104 users
◎豆瓣链接 
◎片  长 102分钟
◎导  演 尤洛斯·林 Euros Lyn
◎编  剧 尼尔·麦凯 Neil McKay
◎主  演 托妮·科莱特 Toni Collette
       戴米恩·路易斯 Damian Lewis
       乔安娜·佩吉 Joanna Page
       尼古拉斯·法瑞尔 Nicholas Farrell
       彼得·戴维森 Peter Davison
       简·菲利普斯 Sian Phillips
       欧文·蒂尔 Owen Teale
       凯瑟琳·詹金斯 Katherine Jenkins
       卡尔·约翰逊 Karl Johnson
       戴伦·伊万斯 Darren Evans
       琳达·巴伦 Lynda Baron
       拉杰·保罗 Raj Paul
       迪·波特切尔 Di Botcher
       安东尼·奥唐纳 Anthony O'Donnell
       阿什克·阿赫塔尔 Asheq Akhtar
       亚历克斯·乔丹 Alex Jordan
       马诺伊·阿南德 Manoj Anand
       尼克·欧文福特 Nick Owenford
       阿图尔·夏尔马 Atul Sharma
       乔·惠特利 Jo Wheatley

◎标  签 英国 | 赛马 | 2020 | 传记 | 喜剧 | 剧情 | 电影 | 美国电影

◎简  介

  托妮·柯莱特(《遗传厄运》《天鹅绒圆锯》)和戴米恩·刘易斯(《亿万》《兄弟连》)将主演剧情片《梦想之马》,尤洛斯·林(《黑镜》《神探夏洛克》)执导,Neil McKay(《我为钱狂》《呼啸山庄》)编写剧本。
  
  基于真事,柯莱特饰演简,她在自己的威尔士小村庄里创立了一个赛马组织,并试图养一匹赛马冠军。刘易斯饰演一个当地会计,加入了组织。
Video
ID                                       : 1
Format                                   : AVC
Format/Info                              : Advanced Video Codec
Format profile                           :
Format settings                          : CABAC / 5 Ref Frames
Format settings, CABAC                   : Yes
Format settings, Reference frames        : 5 frames
Codec ID                                 : V_MPEG4/ISO/AVC
Duration                                 : 1 h 54 min
Bit rate                                 : 7 295 kb/s
Width                                    : 1 920 pixels
Height                                   : 804 pixels
Display aspect ratio                     : 2.40:1
Frame rate mode                          : Constant
Frame rate                               : 23.976 (24000/1001/189150) FPS
Color space                              : YUV
Chroma subsampling                       : 4:2:0
Bit depth                                : 8 bits
Scan type                                : Progressive
Bits/(Pixel*Frame)                       : 0.197
Stream size                              : 5.82 GiB (70%)
Writing library                          : x264 core 164 r3075 66a5bc1
Encoding settings                        : cabac=1 / ref=5 / deblock=1:-3:-3 / analyse=0x3:0x133 / me=umh / subme=9 / psy=1 / psy_rd=1.00:0.00 / mixed_ref=1 / me_range=16 / chroma_me=1 / trellis=2 / 8x8dct=1 / cqm=0 / deadzone=21,11 / fast_pskip=0 / chroma_qp_offset=-2 / threads=25 / lookahead_threads=2 / sliced_threads=0 / nr=0 / decimate=1 / interlaced=0 / bluray_compat=0 / constrained_intra=0 / bframes=3 / b_pyramid=2 / b_adapt=2 / b_bias=0 / direct=3 / weightb=1 / open_gop=0 / weightp=2 / keyint=250 / keyint_min=23 / scenecut=40 / intra_refresh=0 / rc_lookahead=60 / rc=crf / mbtree=1 / crf=17.0 / qcomp=0.60 / qpmin=0 / qpmax=69 / qpstep=4 / ip_ratio=1.40 / aq=1:1.00
Language                                 : English
Default                                  : Yes
Forced                                   : No

Audio
ID                                       : 2
Format                                   : DTS XLL
Format/Info                              : Digital Theater Systems
Commercial name                          : DTS-HD Master Audio
Codec ID                                 : A_DTS
Duration                                 : 1 h 54 min
Bit rate mode                            : Variable
Bit rate                                 : 3 172 kb/s
Channel(s)                               : 6 channels
Channel layout                           : C L R Ls Rs LFE
Sampling rate                            : 48.0 kHz
Frame rate                               : 93.750 FPS (512 SPF)
Bit depth                                : 24 bits
Compression mode                         : Lossless
Stream size                              : 2.53 GiB (30%)
Language                                 : English
Default                                  : Yes
Forced                                   : No

Text #1
ID                                       : 3
Format                                   : PGS
Muxing mode                              : zlib
Codec ID                                 : S_HDMV/PGS
Codec ID/Info                            : Picture based subtitle format used on BDs/HD-DVDs
Duration                                 : 1 h 51 min
Bit rate                                 : 33.1 kb/s
Count of elements                        : 2292
Stream size                              : 26.5 MiB (0%)
Language                                 : German
Default                                  : No
Forced                                   : No

Text #2
ID                                       : 4
Format                                   : PGS
Muxing mode                              : zlib
Codec ID                                 : S_HDMV/PGS
Codec ID/Info                            : Picture based subtitle format used on BDs/HD-DVDs
Duration                                 : 1 h 47 min
Bit rate                                 : 1 712 b/s
Count of elements                        : 100
Stream size                              : 1.32 MiB (0%)
Language                                 : German
Default                                  : No
Forced                                   : No

Menu
00:00:00.000                             : en:Chapter 01
00:09:28.651                             : en:Chapter 02
00:19:40.429                             : en:Chapter 03
00:29:40.904                             : en:Chapter 04
00:39:58.438                             : en:Chapter 05
00:51:20.869                             : en:Chapter 06
00:56:24.923                             : en:Chapter 07
01:08:30.148                             : en:Chapter 08
01:19:49.368                             : en:Chapter 09
01:29:08.593                             : en:Chapter 10
01:38:25.733                             : en:Chapter 11
01:47:10.424                             : en:Chapter 12





                                                                                                                                                                                                        
                                                                                                                                                                                                                                                                                                                                                                                                                                                                                                                                                                                                                                                                                                                                                                                                                                                        
fb378b3d11115122edc836a24b3d03e8.torrent (21.7 KB, 下载次数: 0)

回复

使用道具 举报

小黑屋|西西论坛

本网站所有资源来自网络,如无意中侵犯了您的权益,请发邮件至 [email protected],立即清除相关链接

GMT+8, 2021-11-28 10:40 , Processed in 0.129589 second(s), 17 queries .

Powered by Discuz! X3.2

© 2001-2013 Comsenz Inc.

快速回复 返回顶部 返回列表