西西论坛

 找回密码
 立即注册
搜索

幽灵之国的囚徒/鬼域之囚 Prisoners.of.the.Ghostland.2021.1080p.BluRay.x264-PiGNUS ...

[复制链接]
admin 发表于 2021-11-20 09:39:05 | 显示全部楼层 |阅读模式
幽灵之国的囚徒/鬼域之囚 Prisoners.of.the.Ghostland.2021.1080p.BluRay.x264-PiGNUS 10.13GB                                                                                                                                                                                                                                                                                                                                                                                                                                                                                                                                        -->
帖子完整标题:幽灵之国的囚徒/鬼域之囚 Prisoners.of.the.Ghostland.2021.1080p.BluRay.x264-PiGNUS 10.13GB



edd9945e67a3099aa9f483f76106d55d.jpg



◎译  名 幽灵之国的囚徒/鬼域之囚/鬼域的囚徒
◎片  名 Prisoners Of The Ghostland
◎年  代 2021
◎产  地 美国,日本
◎类  别 动作 / 惊悚 / 恐怖
◎语  言 英语,日语
◎上映日期 2021-01-31(圣丹斯电影节) / 2021-09-17(美国网络) / 2021-10-08(日本)
◎豆瓣评分 3.7/10 from 2531 users
◎豆瓣链接 
◎片  长 100分钟
◎导  演 园子温 Shion Sono
◎编  剧 Aaron Hendry Aaron Hendry / Reza Sixo Safai Reza Sixo Safai
◎主  演 尼古拉斯·凯奇 Nicolas Cage
       索菲亚·波多拉 Sofia Boutella
       尼克·卡萨维蒂 Nick Cassavetes
       比尔·莫斯利 Bill Moseley
       坂口拓 Tak Sakaguchi
       小川辉晃 Teruaki Ogawa
       马修·乔齐克 Matthew Chozick
       艾德·斯克林 Ed Skrein
       海 YOUNG DAIS
       栗原类 Louis Kurihara
       周传兮 Chuanxi Zhou
       萝拉 Rola
       特蕾莎·鲁伊斯 Teresa Ruiz
       中屋柚香 Nakaya Yuzuka
       渡边哲 Tetsu Watanabe
       藤丸千 Sen Fujimaru

◎标  签 园子温 | 尼古拉斯·凯奇 | 奇幻 | 日本 | 2021 | 动作 | 惊悚 | 恐怖

◎简  介

  故事讲述一名被绑架的女孩([波多拉饰])消失在了黑暗超自然宇宙中,臭名昭著的罪犯英雄(凯奇饰)被派去解救她。他们必须打破束缚他们的邪恶诅咒才能逃避统治鬼域的神秘幽灵。
Video
ID                                       : 1
Format                                   : AVC
Format/Info                              : Advanced Video Codec
Format profile                           :
Format settings                          : CABAC / 5 Ref Frames
Format settings, CABAC                   : Yes
Format settings, Reference frames        : 5 frames
Codec ID                                 : V_MPEG4/ISO/AVC
Duration                                 : 1 h 42 min
Bit rate                                 : 10.4 Mb/s
Width                                    : 1 920 pixels
Height                                   : 800 pixels
Display aspect ratio                     : 2.40:1
Frame rate mode                          : Constant
Frame rate                               : 23.976 (24000/1001/189150) FPS
Color space                              : YUV
Chroma subsampling                       : 4:2:0
Bit depth                                : 8 bits
Scan type                                : Progressive
Bits/(Pixel*Frame)                       : 0.282
Stream size                              : 7.43 GiB (73%)
Writing library                          : x264 core 164 r3075 66a5bc1
Encoding settings                        : cabac=1 / ref=5 / deblock=1:-3:-3 / analyse=0x3:0x133 / me=umh / subme=9 / psy=1 / psy_rd=1.00:0.00 / mixed_ref=1 / me_range=16 / chroma_me=1 / trellis=2 / 8x8dct=1 / cqm=0 / deadzone=21,11 / fast_pskip=1 / chroma_qp_offset=-2 / threads=25 / lookahead_threads=2 / sliced_threads=0 / nr=0 / decimate=1 / interlaced=0 / bluray_compat=0 / constrained_intra=0 / bframes=3 / b_pyramid=2 / b_adapt=2 / b_bias=0 / direct=3 / weightb=1 / open_gop=0 / weightp=2 / keyint=250 / keyint_min=23 / scenecut=40 / intra_refresh=0 / rc_lookahead=60 / rc=crf / mbtree=1 / crf=16.0 / qcomp=0.60 / qpmin=0 / qpmax=69 / qpstep=4 / ip_ratio=1.40 / aq=1:1.00
Default                                  : Yes
Forced                                   : No

Audio
ID                                       : 2
Format                                   : DTS XLL
Format/Info                              : Digital Theater Systems
Commercial name                          : DTS-HD Master Audio
Codec ID                                 : A_DTS
Duration                                 : 1 h 42 min
Bit rate mode                            : Variable
Bit rate                                 : 3 747 kb/s
Channel(s)                               : 6 channels
Channel layout                           : C L R Ls Rs LFE
Sampling rate                            : 48.0 kHz
Frame rate                               : 93.750 FPS (512 SPF)
Bit depth                                : 24 bits
Compression mode                         : Lossless
Stream size                              : 2.68 GiB (26%)
Language                                 : English
Default                                  : Yes
Forced                                   : No

Text #1
ID                                       : 3
Format                                   : PGS
Muxing mode                              : zlib
Codec ID                                 : S_HDMV/PGS
Codec ID/Info                            : Picture based subtitle format used on BDs/HD-DVDs
Duration                                 : 1 h 42 min
Bit rate                                 : 14.1 kb/s
Count of elements                        : 2124
Stream size                              : 10.3 MiB (0%)
Title                                    : English SDH
Language                                 : English
Default                                  : No
Forced                                   : No

Text #2
ID                                       : 4
Format                                   : PGS
Muxing mode                              : zlib
Codec ID                                 : S_HDMV/PGS
Codec ID/Info                            : Picture based subtitle format used on BDs/HD-DVDs
Duration                                 : 1 h 34 min
Bit rate                                 : 12.3 kb/s
Count of elements                        : 1680
Stream size                              : 8.37 MiB (0%)
Title                                    : Spanish
Language                                 : Spanish
Default                                  : No
Forced                                   : No

Menu
00:00:00.000                             : en:Chapter 01
00:11:54.631                             : en:Chapter 02
00:31:55.872                             : en:Chapter 03
00:42:11.738                             : en:Chapter 04
00:52:23.474                             : en:Chapter 05
01:00:30.001                             : en:Chapter 06
01:15:01.580                             : en:Chapter 07
01:37:11.701                             : en:Chapter 08
01:42:33.105                             : en:Chapter 09

63cbf5f24fcb6c25c2ec253cc14107cd.jpg





                                                                                                                                                                                                        
                                                                                                                                                                                                                                                                                                                                                                                                                                                                                                                                                                                                                                                                                                                                                                                                                                                        
b4938f0c3dec266f2df8bc4caa60c650.torrent (13.52 KB, 下载次数: 0)

回复

使用道具 举报

小黑屋|西西论坛

本网站所有资源来自网络,如无意中侵犯了您的权益,请发邮件至 [email protected],立即清除相关链接

GMT+8, 2021-11-28 10:53 , Processed in 0.099806 second(s), 17 queries .

Powered by Discuz! X3.2

© 2001-2013 Comsenz Inc.

快速回复 返回顶部 返回列表