西西论坛

 找回密码
 立即注册
搜索

美好的四天/四个好日子 Four.Good.Days.2020.720p.BluRay.x264-WoAT 3.89GB

[复制链接]
admin 发表于 2021-11-20 09:38:52 | 显示全部楼层 |阅读模式
美好的四天/四个好日子 Four.Good.Days.2020.720p.BluRay.x264-WoAT 3.89GB                                                                                                                                                                                                                                                                                                                                                                                                                                                                                                                                        -->
帖子完整标题:美好的四天/四个好日子 Four.Good.Days.2020.720p.BluRay.x264-WoAT 3.89GB



a4b083b5f62aa26546a8408fcf942d59.jpg



◎译  名 美好的四天/四个好日子/美妙四日
◎片  名 Four Good Days
◎年  代 2020
◎产  地 美国
◎类  别 剧情
◎语  言 英语
◎上映日期 2020-01-25(圣丹斯电影节) / 2021-04-30(美国) / 2021-05-21(美国网络)
◎豆瓣评分 6.8/10 from 363 users
◎豆瓣链接 
◎片  长 100分钟
◎导  演 罗德里戈·加西亚 Rodrigo García
◎编  剧 罗德里戈·加西亚 Rodrigo García / 伊莱·萨斯洛 Eli Saslow
◎主  演 米拉·库尼斯 Mila Kunis
       格伦·克洛斯 Glenn Close
       斯蒂芬·鲁特 Stephen Root
       卡拉·盖洛 Carla Gallo
       迈克尔·凯悦 Michael Hyatt
       查德·林德伯格 Chad Lindberg
       维奥莱特·布林森 Violet Brinson
       乔舒华·莱纳德 Joshua Leonard
       尼娜·米林 Nina Millin
       丽贝卡·菲尔德 Rebecca Field
       格洛丽亚·加拉尤亚 Gloria Garayua
       卡洛斯·拉卡马拉 Carlos Lacamara
       曼迪·琼·特平 Mandy June Turpin
       丽贝卡·蒂尔尼 Rebecca Tilney
       山姆·亨宁斯 Sam Hennings
       尼古拉斯·奥特利 Nicholas Oteri
       卡洛斯·安东尼奥 Carlos Antonio
       森约·阿莫库 Senyo Amoaku
       凯伦·格拉西 Karen Graci
       布莱恩·肖托尔 Brian Shortall

◎标  签 家庭 | 剧情 | 美国 | 美国电影 | 人性 | 女性 | 2020 | 电影

◎简  介

  故事讲述一位母亲(格伦·克洛斯 Glenn Close 饰)帮助女儿莫莉(米拉·库尼斯 Mila Kunis饰)度过从药物滥用中康复的关键四天。长期疏远之后,她们在一起的时光不仅抚平了彼此造成的痛苦创伤,也重燃了他们对彼此最根本的、复杂的爱。
  
  本片根据普利策奖得主伊莱·萨斯洛的WaPo文章改编,加西亚将与其共同撰写剧本。
Video
ID                                       : 1
Format                                   : AVC
Format/Info                              : Advanced Video Codec
Format profile                           :
Format settings                          : CABAC / 8 Ref Frames
Format settings, CABAC                   : Yes
Format settings, Reference frames        : 8 frames
Codec ID                                 : V_MPEG4/ISO/AVC
Duration                                 : 1 h 40 min
Bit rate                                 : 2 307 kb/s
Width                                    : 1 280 pixels
Height                                   : 536 pixels
Display aspect ratio                     : 2.40:1
Frame rate mode                          : Constant
Frame rate                               : 23.976 (24000/1001/189150) FPS
Color space                              : YUV
Chroma subsampling                       : 4:2:0
Bit depth                                : 8 bits
Scan type                                : Progressive
Bits/(Pixel*Frame)                       : 0.140
Stream size                              : 1.62 GiB (42%)
Writing library                          : x264 core 164 r3075 66a5bc1
Encoding settings                        : cabac=1 / ref=8 / deblock=1:-3:-3 / analyse=0x3:0x133 / me=umh / subme=9 / psy=1 / psy_rd=1.00:0.00 / mixed_ref=1 / me_range=32 / chroma_me=1 / trellis=2 / 8x8dct=1 / cqm=0 / deadzone=21,11 / fast_pskip=0 / chroma_qp_offset=-2 / threads=16 / lookahead_threads=2 / sliced_threads=0 / nr=0 / decimate=0 / interlaced=0 / bluray_compat=0 / constrained_intra=0 / bframes=8 / b_pyramid=2 / b_adapt=2 / b_bias=0 / direct=3 / weightb=1 / open_gop=0 / weightp=2 / keyint=250 / keyint_min=23 / scenecut=40 / intra_refresh=0 / rc_lookahead=60 / rc=crf / mbtree=1 / crf=16.0 / qcomp=0.60 / qpmin=0 / qpmax=69 / qpstep=4 / ip_ratio=1.40 / aq=3:0.88
Default                                  : Yes
Forced                                   : No
Color range                              : Limited
Matrix coefficients                      : BT.709

Audio
ID                                       : 2
Format                                   : DTS XLL
Format/Info                              : Digital Theater Systems
Commercial name                          : DTS-HD Master Audio
Codec ID                                 : A_DTS
Duration                                 : 1 h 40 min
Bit rate mode                            : Variable
Bit rate                                 : 3 211 kb/s
Channel(s)                               : 6 channels
Channel layout                           : C L R Ls Rs LFE
Sampling rate                            : 48.0 kHz
Frame rate                               : 93.750 FPS (512 SPF)
Bit depth                                : 24 bits
Compression mode                         : Lossless
Stream size                              : 2.25 GiB (58%)
Title                                    : English
Language                                 : English
Default                                  : No
Forced                                   : No

Text
ID                                       : 3
Format                                   : PGS
Muxing mode                              : zlib
Codec ID                                 : S_HDMV/PGS
Codec ID/Info                            : Picture based subtitle format used on BDs/HD-DVDs
Duration                                 : 1 h 33 min
Bit rate                                 : 33.8 kb/s
Count of elements                        : 3010
Stream size                              : 22.6 MiB (1%)
Title                                    : English
Language                                 : English
Default                                  : No
Forced                                   : No

Menu
00:00:00.000                             : Chapter 01
00:08:47.736                             : Chapter 02
00:15:50.741                             : Chapter 03
00:26:19.411                             : Chapter 04
00:34:56.511                             : Chapter 05
00:47:41.525                             : Chapter 06
00:58:27.671                             : Chapter 07
01:05:08.404                             : Chapter 08
01:12:58.583                             : Chapter 09
01:22:45.335                             : Chapter 10
01:30:22.834                             : Chapter 11
01:36:32.078                             : Chapter 12

ce53ec8441800e67440c0ade72c8dbe2.jpg





                                                                                                                                                                                                        
                                                                                                                                                                                                                                                                                                                                                                                                                                                                                                                                                                                                                                                                                                                                                                                                                                                        
87a430d0a9077ee1371bc66ee368cd80.torrent (20.17 KB, 下载次数: 0)

回复

使用道具 举报

小黑屋|西西论坛

本网站所有资源来自网络,如无意中侵犯了您的权益,请发邮件至 [email protected],立即清除相关链接

GMT+8, 2021-12-3 14:13 , Processed in 0.085454 second(s), 17 queries .

Powered by Discuz! X3.2

© 2001-2013 Comsenz Inc.

快速回复 返回顶部 返回列表