西西论坛

 找回密码
 立即注册
搜索

伯特·斯特恩:原本狂人/真正的廣告狂人 Bert.Stern.Original.Madman.2011.720p.BluRay ...

[复制链接]
admin 发表于 2021-11-19 09:38:25 | 显示全部楼层 |阅读模式
伯特·斯特恩:原本狂人/真正的廣告狂人 Bert.Stern.Original.Madman.2011.720p.BluRay.x264-BiPOLAR 3.2                                                                                                                                                                                                                                                                                                                                                                                                                                                                                                                                        -->
帖子完整标题:伯特·斯特恩:原本狂人/真正的廣告狂人 Bert.Stern.Original.Madman.2011.720p.BluRay.x264-BiPOLAR 3.24GB



bf7bac2373b77776be417e68788db798.jpg



◎译  名 伯特·斯特恩:原本狂人/真正的廣告狂人(台)
◎片  名 Bert Stern: Original Madman
◎年  代 2011
◎产  地 美国
◎类  别 纪录片
◎语  言 英语
◎上映日期 
◎豆瓣评分 /10 from 0 users
◎豆瓣链接 
◎导  演 Shannah Laumeister Shannah Laumeister
◎编  剧 Shannah Laumeister Shannah Laumeister
◎主  演 路易斯·阿姆斯特朗 Louis Armstrong
       George Avakian George Avakian
       碧姬·芭铎 Brigitte Bardot

◎标  签 纪录片 | 美国 | 玛丽莲梦露 | 美国纪录片 | Documentary | 碧姬·巴铎 | photographer | fashion

◎简  介

  伯特斯特恩輝煌的生涯始於Look雜誌的收發室,在那裏他和同公司的攝影師變成了好友,那位攝影師就是史丹利庫柏力克。遇上了廣告業的黃金年代,再加上庫柏力克的幫助,伯特斯特恩在25歲就成了知名的廣告攝影師,受到好萊塢、麥迪遜大道和國際時尚品牌競相邀約的對象,本片揭開這位廣告紅人的崛起與衰落。
Video
ID                                       : 1
Format                                   : AVC
Format/Info                              : Advanced Video Codec
Format profile                           :
Format settings                          : CABAC / 9 Ref Frames
Format settings, CABAC                   : Yes
Format settings, Reference frames        : 9 frames
Codec ID                                 : V_MPEG4/ISO/AVC
Duration                                 : 1 h 28 min
Bit rate                                 : 3 861 kb/s
Width                                    : 1 280 pixels
Height                                   : 720 pixels
Display aspect ratio                     : 16:9
Frame rate mode                          : Constant
Frame rate                               : 29.970 (30000/1001/189150) FPS
Color space                              : YUV
Chroma subsampling                       : 4:2:0
Bit depth                                : 8 bits
Scan type                                : Progressive
Bits/(Pixel*Frame)                       : 0.140
Stream size                              : 2.39 GiB (74%)
Writing library                          : x264 core 164 r3075 66a5bc1
Encoding settings                        : cabac=1 / ref=9 / deblock=1:-3:-3 / analyse=0x3:0x133 / me=umh / subme=10 / psy=1 / psy_rd=1.00:0.15 / mixed_ref=1 / me_range=24 / chroma_me=1 / trellis=2 / 8x8dct=1 / cqm=0 / deadzone=21,11 / fast_pskip=1 / chroma_qp_offset=-3 / threads=18 / lookahead_threads=3 / sliced_threads=0 / nr=0 / decimate=1 / interlaced=0 / bluray_compat=0 / constrained_intra=0 / bframes=8 / b_pyramid=2 / b_adapt=2 / b_bias=0 / direct=3 / weightb=1 / open_gop=0 / weightp=2 / keyint=250 / keyint_min=25 / scenecut=40 / intra_refresh=0 / rc_lookahead=60 / rc=crf / mbtree=1 / crf=17.0 / qcomp=0.60 / qpmin=0 / qpmax=69 / qpstep=4 / ip_ratio=1.40 / aq=3:0.60
Language                                 : English
Default                                  : Yes
Forced                                   : No

Audio
ID                                       : 2
Format                                   : FLAC
Format/Info                              : Free Lossless Audio Codec
Codec ID                                 : A_FLAC
Duration                                 : 1 h 28 min
Bit rate mode                            : Variable
Bit rate                                 : 1 374 kb/s
Channel(s)                               : 2 channels
Channel layout                           : L R
Sampling rate                            : 48.0 kHz
Frame rate                               : 11.719 FPS (4096 SPF)
Bit depth                                : 24 bits
Compression mode                         : Lossless
Stream size                              : 870 MiB (26%)
Writing library                          : libFLAC 1.2.1 (UTC 2007-09-17)
Language                                 : English
Default                                  : Yes
Forced                                   : No

Menu
00:00:00.000                             : en:00:00:00.000
00:09:00.440                             : en:00:09:00.440
00:17:48.434                             : en:00:17:48.434
00:26:19.711                             : en:00:26:19.711
00:36:25.283                             : en:00:36:25.283
00:45:05.403                             : en:00:45:05.403
00:54:39.042                             : en:00:54:39.042
01:01:50.807                             : en:01:01:50.807
01:13:44.487                             : en:01:13:44.487
01:21:36.191                             : en:01:21:36.191

38cca3018fc02cbd54b3a045424c54df.jpg





                                                                                                                                                                                                        
                                                                                                                                                                                                                                                                                                                                                                                                                                                                                                                                                                                                                                                                                                                                                                                                                                                        
a924a5d03544b5a6df6b1ed1147f42ba.torrent (16.97 KB, 下载次数: 0)

回复

使用道具 举报

小黑屋|西西论坛

本网站所有资源来自网络,如无意中侵犯了您的权益,请发邮件至 [email protected],立即清除相关链接

GMT+8, 2021-12-3 14:46 , Processed in 0.105232 second(s), 17 queries .

Powered by Discuz! X3.2

© 2001-2013 Comsenz Inc.

快速回复 返回顶部 返回列表