西西论坛

 找回密码
 立即注册
搜索

蝗虫之日/淑女·荡妇·情人 The.Day.of.the.Locust.1975.1080p.BluRay.x264-USURY 22. ...

[复制链接]
admin 发表于 2021-11-19 09:38:23 | 显示全部楼层 |阅读模式
蝗虫之日/淑女·荡妇·情人 The.Day.of.the.Locust.1975.1080p.BluRay.x264-USURY 22.56GB                                                                                                                                                                                                                                                                                                                                                                                                                                                                                                                                        -->
帖子完整标题:蝗虫之日/淑女·荡妇·情人 The.Day.of.the.Locust.1975.1080p.BluRay.x264-USURY 22.56GB



bf1eb8cfc209df5ac3295a1e34d64b8f.jpg



◎译  名 蝗虫之日/淑女·荡妇·情人
◎片  名 The Day of the Locust
◎年  代 1975
◎产  地 美国
◎类  别 剧情 / 惊悚
◎语  言 英语
◎上映日期 1975-08-22
◎豆瓣评分 7.4/10 from 290 users
◎豆瓣链接 
◎片  长 144分钟
◎导  演 约翰·施莱辛格 John Schlesinger
◎编  剧 纳旦尼尔·韦斯特 Nathanael West / 瓦尔度·绍特 Waldo Salt
◎主  演 唐纳德·萨瑟兰 Donald Sutherland
       凯伦·布莱克 Karen Black
       威廉·阿瑟东 William Atherton
       布吉斯·梅迪斯 Burgess Meredith
       杰拉丹·佩姬 Geraldine Page
       Kenny Solms Kenny Solms

◎标  签 美国 | 美国电影 | 1970s | 约翰·施莱辛格 | 惊悚 | 1975 | JohnSchlesinger | 剧情

◎简  介

  怀揣着成为艺术家的梦想,托德(威廉·阿瑟东 William Atherton 饰)来到了好莱坞,在这里,他成为了一名布景绘制员,并且解释了在旅馆里做会计的霍梅尔(唐纳德·萨瑟兰 Donald Sutherland 饰)。这两个男人之间脆弱的友谊很快就因为一个名叫菲耶(凯伦·布莱克 Karen Black 饰)的女人的出现而产生了裂痕。
  
  菲耶渴望成为电影明星,但是苍白的现实让她不得不干起了应召女郎的勾当。菲耶的堕落让托德十分的愤怒,似乎是为了和托德对着干,菲耶选择了懦弱的霍梅尔,和他开始了同居的生活。虽然和霍梅尔住在了一起,但菲耶始终没有停止过在外面寻欢作乐。

◎获奖情况

  第48届奥斯卡金像奖 ?(1976)
  最佳男配角(提名) 布吉斯·梅迪斯
  最佳摄影(提名) 康拉德·霍尔
Video
ID                                       : 1
Format                                   : AVC
Format/Info                              : Advanced Video Codec
Format profile                           :
Format settings                          : CABAC / 4 Ref Frames
Format settings, CABAC                   : Yes
Format settings, Reference frames        : 4 frames
Codec ID                                 : V_MPEG4/ISO/AVC
Duration                                 : 2 h 24 min
Bit rate                                 : 18.8 Mb/s
Width                                    : 1 920 pixels
Height                                   : 1 080 pixels
Display aspect ratio                     : 16:9
Frame rate mode                          : Constant
Frame rate                               : 23.976 (24000/1001/189150) FPS
Color space                              : YUV
Chroma subsampling                       : 4:2:0
Bit depth                                : 8 bits
Scan type                                : Progressive
Bits/(Pixel*Frame)                       : 0.379
Stream size                              : 19.0 GiB (84%)
Writing library                          : x264 core 161 r3027 4121277
Encoding settings                        : cabac=1 / ref=4 / deblock=1:-3:-3 / analyse=0x3:0x133 / me=umh / subme=10 / psy=1 / psy_rd=1.00:0.15 / mixed_ref=1 / me_range=24 / chroma_me=1 / trellis=2 / 8x8dct=1 / cqm=0 / deadzone=21,11 / fast_pskip=1 / chroma_qp_offset=-3 / threads=18 / lookahead_threads=3 / sliced_threads=0 / nr=0 / decimate=1 / interlaced=0 / bluray_compat=0 / constrained_intra=0 / bframes=8 / b_pyramid=2 / b_adapt=2 / b_bias=0 / direct=3 / weightb=1 / open_gop=0 / weightp=2 / keyint=250 / keyint_min=23 / scenecut=40 / intra_refresh=0 / rc_lookahead=60 / rc=crf / mbtree=1 / crf=20.5 / qcomp=0.60 / qpmin=0 / qpmax=69 / qpstep=4 / ip_ratio=1.40 / aq=3:0.50
Language                                 : English
Default                                  : Yes
Forced                                   : No
Color range                              : Limited
Matrix coefficients                      : BT.709

Audio #1
ID                                       : 2
Format                                   : DTS XLL
Format/Info                              : Digital Theater Systems
Commercial name                          : DTS-HD Master Audio
Codec ID                                 : A_DTS
Duration                                 : 2 h 24 min
Bit rate mode                            : Variable
Bit rate                                 : 3 470 kb/s
Channel(s)                               : 6 channels
Channel layout                           : C L R Ls Rs LFE
Sampling rate                            : 48.0 kHz
Frame rate                               : 93.750 FPS (512 SPF)
Bit depth                                : 24 bits
Compression mode                         : Lossless
Stream size                              : 3.49 GiB (15%)
Language                                 : English
Default                                  : Yes
Forced                                   : No

Audio #2
ID                                       : 3
Format                                   : AAC LC
Format/Info                              : Advanced Audio Codec Low Complexity
Codec ID                                 : A_AAC-2
Duration                                 : 2 h 24 min
Bit rate                                 : 89.1 kb/s
Channel(s)                               : 2 channels
Channel layout                           : L R
Sampling rate                            : 48.0 kHz
Frame rate                               : 46.875 FPS (1024 SPF)
Compression mode                         : Lossy
Delay relative to video                  : 9 ms
Stream size                              : 91.9 MiB (0%)
Title                                    : English Commentary by Kat Ellinger
Language                                 : English
Default                                  : No
Forced                                   : No

Text #1
ID                                       : 4
Format                                   : UTF-8
Codec ID                                 : S_TEXT/UTF8
Codec ID/Info                            : UTF-8 Plain Text
Duration                                 : 2 h 15 min
Bit rate                                 : 51 b/s
Count of elements                        : 1531
Stream size                              : 51.1 KiB (0%)
Title                                    : English
Language                                 : English
Default                                  : No
Forced                                   : No

Text #2
ID                                       : 5
Format                                   : PGS
Muxing mode                              : zlib
Codec ID                                 : S_HDMV/PGS
Codec ID/Info                            : Picture based subtitle format used on BDs/HD-DVDs
Duration                                 : 2 h 15 min
Bit rate                                 : 10.9 kb/s
Count of elements                        : 3062
Stream size                              : 10.6 MiB (0%)
Title                                    : English
Language                                 : English
Default                                  : No
Forced                                   : No

Menu
00:00:00.000                             : en:00:00:00.000
00:22:44.363                             : en:00:22:44.363
00:37:59.486                             : en:00:37:59.486
00:53:05.015                             : en:00:53:05.015
01:11:25.865                             : en:01:11:25.865
01:23:06.356                             : en:01:23:06.356
01:34:09.143                             : en:01:34:09.143
01:48:02.768                             : en:01:48:02.768
01:59:54.229                             : en:01:59:54.229
02:06:08.728                             : en:02:06:08.728
02:21:54.548                             : en:02:21:54.548

b9ba039341cc463b14d7047d03e46e8f.jpg





                                                                                                                                                                                                        
                                                                                                                                                                                                                                                                                                                                                                                                                                                                                                                                                                                                                                                                                                                                                                                                                                                        
0536e64760fb8cac9b893b6e1d1dc350.torrent (28.97 KB, 下载次数: 0)

回复

使用道具 举报

小黑屋|西西论坛

本网站所有资源来自网络,如无意中侵犯了您的权益,请发邮件至 [email protected],立即清除相关链接

GMT+8, 2021-11-28 10:13 , Processed in 0.108830 second(s), 17 queries .

Powered by Discuz! X3.2

© 2001-2013 Comsenz Inc.

快速回复 返回顶部 返回列表