西西论坛

 找回密码
 立即注册
搜索

十诫 The.Ten.Commandments.1923.720p.BluRay.x264-USURY 7.89GB

[复制链接]
admin 发表于 2021-11-19 09:38:22 | 显示全部楼层 |阅读模式
十诫 The.Ten.Commandments.1923.720p.BluRay.x264-USURY 7.89GB                                                                                                                                                                                                                                                                                                                                                                                                                                                                                                                                        -->
帖子完整标题:十诫 The.Ten.Commandments.1923.720p.BluRay.x264-USURY 7.89GB



803ab904de60f2b30c0306a49a19e0d3.jpg



◎译  名 十诫
◎片  名 The Ten Commandments
◎年  代 1923
◎产  地 美国
◎类  别 剧情
◎语  言 英语
◎上映日期 1923-11-23
◎豆瓣评分 7.6/10 from 191 users
◎豆瓣链接 
◎片  长 136 分钟
◎导  演 塞西尔·B·戴米尔 Cecil B. DeMille
◎编  剧 简妮·麦克弗森 Jeanie Macpherson
◎主  演 西奥多·罗伯茨 Theodore Roberts
       夏尔·德罗什福尔 Charles de Rochefort
       埃斯特尔·泰勒 Estelle Taylor
       茱莉亚·法耶 Julia Faye
       帕特·穆尔 Pat Moore
       诺贝·约翰逊 Noble Johnson
       罗斯科·卡恩茨 Roscoe Karns
       Jack Montgomery Jack Montgomery
       查尔斯·奥格尔 Charles Ogle
       Jack Padjan Jack Padjan
       Robert St. Angelo Robert St. Angelo
       Mabel Richardson Mabel Richardson
        Kathleen O'Shee
       Cecilia de Mille Cecilia de Mille
       罗伯特·艾德森 Robert Edeson
       查尔斯·法莱尔 Charles Farrell
       理查德·迪克斯 Richard Dix
       James Neill James Neill
       妮塔·纳尔迪 Nita Naldi
       Jack Richardson Jack Richardson
       丽特里斯·乔伊 Leatrice Joy
       罗德·拉·罗克奎 Rod La Rocque
       尤金·佩里特 Eugene Pallette
       雷克斯·英格拉姆 Rex Ingram
       Wilson Benge Wilson Benge
       Dorothy Dale Dorothy Dale
       Lawson Butt Lawson Butt
       艾迪丝·查普曼 Edythe Chapman
       Clarence Burton Clarence Burton
       基诺科拉多 Gino Corrado
       阿尼亚斯·艾瑞丝 Agnes Ayres

◎标  签 宗教 | 美国 | 史诗 | 塞西尔·B·戴米尔 | 默片 | 十诫 | 美国电影 | 1920s

◎简  介

  暂无相关剧情介绍
Video
ID                                       : 1
Format                                   : AVC
Format/Info                              : Advanced Video Codec
Format profile                           :
Format settings                          : CABAC / 12 Ref Frames
Format settings, CABAC                   : Yes
Format settings, Reference frames        : 12 frames
Codec ID                                 : V_MPEG4/ISO/AVC
Duration                                 : 2 h 16 min
Bit rate                                 : 7 906 kb/s
Width                                    : 960 pixels
Height                                   : 720 pixels
Display aspect ratio                     : 4:3
Frame rate mode                          : Constant
Frame rate                               : 23.976 (24000/1001/189150) FPS
Color space                              : YUV
Chroma subsampling                       : 4:2:0
Bit depth                                : 8 bits
Scan type                                : Progressive
Bits/(Pixel*Frame)                       : 0.477
Stream size                              : 7.52 GiB (95%)
Writing library                          : x264 core 164 r3075 66a5bc1
Encoding settings                        : cabac=1 / ref=12 / deblock=1:-3:-3 / analyse=0x3:0x133 / me=umh / subme=10 / psy=1 / psy_rd=1.00:0.15 / mixed_ref=1 / me_range=24 / chroma_me=1 / trellis=2 / 8x8dct=1 / cqm=0 / deadzone=21,11 / fast_pskip=1 / chroma_qp_offset=-3 / threads=18 / lookahead_threads=3 / sliced_threads=0 / nr=0 / decimate=1 / interlaced=0 / bluray_compat=0 / constrained_intra=0 / bframes=8 / b_pyramid=2 / b_adapt=2 / b_bias=0 / direct=3 / weightb=1 / open_gop=0 / weightp=2 / keyint=250 / keyint_min=23 / scenecut=40 / intra_refresh=0 / rc_lookahead=60 / rc=crf / mbtree=1 / crf=17.0 / qcomp=0.60 / qpmin=0 / qpmax=69 / qpstep=4 / ip_ratio=1.40 / aq=3:0.50
Language                                 : English
Default                                  : Yes
Forced                                   : No
Color range                              : Limited
Matrix coefficients                      : BT.709

Audio #1
ID                                       : 2
Format                                   : AC-3
Format/Info                              : Audio Coding 3
Commercial name                          : Dolby Digital
Codec ID                                 : A_AC3
Duration                                 : 2 h 16 min
Bit rate mode                            : Constant
Bit rate                                 : 256 kb/s
Channel(s)                               : 2 channels
Channel layout                           : L R
Sampling rate                            : 48.0 kHz
Frame rate                               : 31.250 FPS (1536 SPF)
Compression mode                         : Lossy
Stream size                              : 249 MiB (3%)
Language                                 : zxx
Service kind                             : Complete Main
Default                                  : Yes
Forced                                   : No

Audio #2
ID                                       : 3
Format                                   : AAC LC
Format/Info                              : Advanced Audio Codec Low Complexity
Codec ID                                 : A_AAC-2
Duration                                 : 2 h 16 min
Bit rate                                 : 114 kb/s
Channel(s)                               : 2 channels
Channel layout                           : L R
Sampling rate                            : 48.0 kHz
Frame rate                               : 46.875 FPS (1024 SPF)
Compression mode                         : Lossy
Delay relative to video                  : 9 ms
Stream size                              : 112 MiB (1%)
Title                                    : English Commentary by Katherine Orrison
Language                                 : English
Default                                  : No
Forced                                   : No

Text #1
ID                                       : 4
Format                                   : UTF-8
Codec ID                                 : S_TEXT/UTF8
Codec ID/Info                            : UTF-8 Plain Text
Duration                                 : 2 h 13 min
Bit rate                                 : 20 b/s
Count of elements                        : 468
Stream size                              : 20.6 KiB (0%)
Title                                    : French
Language                                 : French
Default                                  : No
Forced                                   : No

Text #2
ID                                       : 5
Format                                   : PGS
Muxing mode                              : zlib
Codec ID                                 : S_HDMV/PGS
Codec ID/Info                            : Picture based subtitle format used on BDs/HD-DVDs
Duration                                 : 2 h 13 min
Bit rate                                 : 4 968 b/s
Count of elements                        : 936
Stream size                              : 4.76 MiB (0%)
Title                                    : French
Language                                 : French
Default                                  : No
Forced                                   : No

Text #3
ID                                       : 6
Format                                   : PGS
Muxing mode                              : zlib
Codec ID                                 : S_HDMV/PGS
Codec ID/Info                            : Picture based subtitle format used on BDs/HD-DVDs
Duration                                 : 2 h 15 min
Bit rate                                 : 4 766 b/s
Count of elements                        : 922
Stream size                              : 4.63 MiB (0%)
Title                                    : Portuguese
Language                                 : Portuguese
Default                                  : No
Forced                                   : No

Text #4
ID                                       : 7
Format                                   : PGS
Muxing mode                              : zlib
Codec ID                                 : S_HDMV/PGS
Codec ID/Info                            : Picture based subtitle format used on BDs/HD-DVDs
Duration                                 : 2 h 13 min
Bit rate                                 : 4 919 b/s
Count of elements                        : 928
Stream size                              : 4.71 MiB (0%)
Title                                    : Spanish
Language                                 : Spanish
Default                                  : No
Forced                                   : No

Menu
00:00:00.000                             : en:00:00:00.000
00:08:12.450                             : en:00:08:12.450
00:13:03.866                             : en:00:13:03.866
00:16:57.642                             : en:00:16:57.642
00:26:04.563                             : en:00:26:04.563
00:36:30.688                             : en:00:36:30.688
00:50:10.633                             : en:00:50:10.633
00:55:33.997                             : en:00:55:33.997
01:02:56.606                             : en:01:02:56.606
01:14:52.446                             : en:01:14:52.446
01:22:34.783                             : en:01:22:34.783
01:33:22.680                             : en:01:33:22.680
01:45:09.428                             : en:01:45:09.428
01:56:56.009                             : en:01:56:56.009
02:12:21.892                             : en:02:12:21.892

7d1890326ffedeb2622fca189753f523.jpg





                                                                                                                                                                                                        
                                                                                                                                                                                                                                                                                                                                                                                                                                                                                                                                                                                                                                                                                                                                                                                                                                                        
c7b4b1d832e49cde36d31864f78aacf2.torrent (20.48 KB, 下载次数: 0)

回复

使用道具 举报

小黑屋|西西论坛

本网站所有资源来自网络,如无意中侵犯了您的权益,请发邮件至 [email protected],立即清除相关链接

GMT+8, 2021-12-3 15:08 , Processed in 0.160699 second(s), 17 queries .

Powered by Discuz! X3.2

© 2001-2013 Comsenz Inc.

快速回复 返回顶部 返回列表