西西论坛

 找回密码
 立即注册
搜索

81号市区 Downtown.81.2000.1080p.BluRay.x264-USURY 10.09GB

[复制链接]
admin 发表于 2021-11-19 09:38:20 | 显示全部楼层 |阅读模式
81号市区 Downtown.81.2000.1080p.BluRay.x264-USURY 10.09GB                                                                                                                                                                                                                                                                                                                                                                                                                                                                                                                                        -->
帖子完整标题:81号市区 Downtown.81.2000.1080p.BluRay.x264-USURY 10.09GB



4967136e6851c60de28a83aedacde439.jpg



◎译  名 81号市区/Glenn O'Brien's New York Beat Movie/New York Beat Movie
◎片  名 Downtown 81
◎年  代 1981
◎产  地 美国
◎类  别 剧情 / 喜剧
◎语  言 英语
◎上映日期 2000-10-05 / 2001-03-14(法国)
◎豆瓣评分 7.8/10 from 123 users
◎豆瓣链接 
◎片  长 France: 73 分钟
◎导  演 Edo Bertoglio Edo Bertoglio
◎主  演 阿莫斯·坡 Amos Poe
       索尔·威廉姆斯 Saul Williams

◎标  签 美国 | 涂鸦 | 传记 | 独立电影 | 纪录片 | basquiat | 艺术 | 美国电影

◎简  介

  1981年,导演Edo Bertogl给Jean-Michel Basquiat拍了一部自传式的电影《DOWNTOWN》,主演就是Jean-Michel Basquiat自己,那时他刚刚才21岁,但早已经声名鹊起。Basquiat从走进酒吧,身边有一茬接一茬的人坐过来跟他搭讪,他心不在蔫地应答,有人滚倒在地上打起了架,他喝光杯里的酒,走出去,在酒吧门口,他拒绝了一个打扮低级艳俗的女郎。经过垃圾堆时,一个面容俊朗但裹挟在无比肮脏里的男孩被吵醒,然后向他索吻,男孩对他说,kiss me,please?Basquiat站了站,然后竟然真地伏下身去吻他的唇,吻完之后又极度厌恶地使劲擦自己的嘴巴。可是奇迹出现了,肮脏的男孩变成了漂亮的金发女郎,他们再一次热烈亲吻,这一次,女郎不见了,地上出现了一只皮箱,塞满的钱都溢了出来,Basquiat兴奋地拎着箱子一路狂奔,留下那些流浪汉们在身后蜂拥上来彼此恶毒地争抢。镜头切换至汽车奔驰的公路,一路往前,天际线远得够也够不着……
Video
ID                                       : 1
Format                                   : AVC
Format/Info                              : Advanced Video Codec
Format profile                           :
Format settings                          : CABAC / 4 Ref Frames
Format settings, CABAC                   : Yes
Format settings, Reference frames        : 4 frames
Codec ID                                 : V_MPEG4/ISO/AVC
Duration                                 : 1 h 11 min
Bit rate                                 : 17.9 Mb/s
Width                                    : 1 918 pixels
Height                                   : 1 080 pixels
Display aspect ratio                     : 16:9
Frame rate mode                          : Constant
Frame rate                               : 23.976 (24000/1001/189150) FPS
Color space                              : YUV
Chroma subsampling                       : 4:2:0
Bit depth                                : 8 bits
Scan type                                : Progressive
Bits/(Pixel*Frame)                       : 0.360
Stream size                              : 8.88 GiB (88%)
Writing library                          : x264 core 164 r3075 66a5bc1
Encoding settings                        : cabac=1 / ref=4 / deblock=1:-3:-3 / analyse=0x3:0x133 / me=umh / subme=10 / psy=1 / psy_rd=1.00:0.15 / mixed_ref=1 / me_range=24 / chroma_me=1 / trellis=2 / 8x8dct=1 / cqm=0 / deadzone=21,11 / fast_pskip=1 / chroma_qp_offset=-3 / threads=18 / lookahead_threads=3 / sliced_threads=0 / nr=0 / decimate=1 / interlaced=0 / bluray_compat=0 / constrained_intra=0 / bframes=8 / b_pyramid=2 / b_adapt=2 / b_bias=0 / direct=3 / weightb=1 / open_gop=0 / weightp=2 / keyint=250 / keyint_min=23 / scenecut=40 / intra_refresh=0 / rc_lookahead=60 / rc=crf / mbtree=1 / crf=19.7 / qcomp=0.60 / qpmin=0 / qpmax=69 / qpstep=4 / ip_ratio=1.40 / aq=3:0.50
Language                                 : English
Default                                  : Yes
Forced                                   : No
Color range                              : Limited
Matrix coefficients                      : BT.709

Audio #1
ID                                       : 2
Format                                   : DTS XLL
Format/Info                              : Digital Theater Systems
Commercial name                          : DTS-HD Master Audio
Codec ID                                 : A_DTS
Duration                                 : 1 h 11 min
Bit rate mode                            : Variable
Bit rate                                 : 2 162 kb/s
Channel(s)                               : 6 channels
Channel layout                           : C L R Ls Rs LFE
Sampling rate                            : 48.0 kHz
Frame rate                               : 93.750 FPS (512 SPF)
Bit depth                                : 24 bits
Compression mode                         : Lossless
Stream size                              : 1.08 GiB (11%)
Language                                 : English
Default                                  : Yes
Forced                                   : No

Audio #2
ID                                       : 3
Format                                   : AAC LC
Format/Info                              : Advanced Audio Codec Low Complexity
Codec ID                                 : A_AAC-2
Duration                                 : 1 h 11 min
Bit rate                                 : 124 kb/s
Channel(s)                               : 2 channels
Channel layout                           : L R
Sampling rate                            : 48.0 kHz
Frame rate                               : 46.875 FPS (1024 SPF)
Compression mode                         : Lossy
Delay relative to video                  : 9 ms
Stream size                              : 63.0 MiB (1%)
Title                                    : English Commentary by Luc Sante and Lee Quinones
Language                                 : English
Default                                  : No
Forced                                   : No

Audio #3
ID                                       : 4
Format                                   : AAC LC
Format/Info                              : Advanced Audio Codec Low Complexity
Codec ID                                 : A_AAC-2
Duration                                 : 1 h 11 min
Bit rate                                 : 90.4 kb/s
Channel(s)                               : 2 channels
Channel layout                           : L R
Sampling rate                            : 48.0 kHz
Frame rate                               : 46.875 FPS (1024 SPF)
Compression mode                         : Lossy
Delay relative to video                  : 9 ms
Stream size                              : 46.0 MiB (0%)
Title                                    : English Commentary by Maripol and Glenn O\'Brien
Language                                 : English
Default                                  : No
Forced                                   : No

Text #1
ID                                       : 5
Format                                   : UTF-8
Codec ID                                 : S_TEXT/UTF8
Codec ID/Info                            : UTF-8 Plain Text
Duration                                 : 1 h 10 min
Bit rate                                 : 79 b/s
Count of elements                        : 1243
Stream size                              : 40.9 KiB (0%)
Title                                    : English
Language                                 : English
Default                                  : No
Forced                                   : No

Text #2
ID                                       : 6
Format                                   : UTF-8
Codec ID                                 : S_TEXT/UTF8
Codec ID/Info                            : UTF-8 Plain Text
Duration                                 : 1 h 10 min
Bit rate                                 : 81 b/s
Count of elements                        : 1514
Stream size                              : 42.4 KiB (0%)
Title                                    : English SDH
Language                                 : English
Default                                  : No
Forced                                   : No

Text #3
ID                                       : 7
Format                                   : PGS
Muxing mode                              : zlib
Codec ID                                 : S_HDMV/PGS
Codec ID/Info                            : Picture based subtitle format used on BDs/HD-DVDs
Duration                                 : 1 h 10 min
Bit rate                                 : 59.6 kb/s
Count of elements                        : 3028
Stream size                              : 30.2 MiB (0%)
Title                                    : English SDH
Language                                 : English
Default                                  : No
Forced                                   : No

Menu
00:00:00.000                             : en:00:00:00.000
00:09:00.957                             : en:00:09:00.957
00:16:30.489                             : en:00:16:30.489
00:21:50.267                             : en:00:21:50.267
00:29:36.233                             : en:00:29:36.233
00:35:36.593                             : en:00:35:36.593
00:40:16.122                             : en:00:40:16.122
00:46:49.682                             : en:00:46:49.682
00:56:27.676                             : en:00:56:27.676
01:03:38.565                             : en:01:03:38.565

fb978a59586609d27fafc02e9ffde9f7.jpg





                                                                                                                                                                                                        
                                                                                                                                                                                                                                                                                                                                                                                                                                                                                                                                                                                                                                                                                                                                                                                                                                                        
197d8ea7578f69c6e42306cef9fa279c.torrent (13.35 KB, 下载次数: 0)

回复

使用道具 举报

小黑屋|西西论坛

本网站所有资源来自网络,如无意中侵犯了您的权益,请发邮件至 [email protected],立即清除相关链接

GMT+8, 2021-11-28 10:36 , Processed in 0.149938 second(s), 17 queries .

Powered by Discuz! X3.2

© 2001-2013 Comsenz Inc.

快速回复 返回顶部 返回列表