西西论坛

 找回密码
 立即注册
搜索

偶像 The.Living.Idol.1957.720p.BluRay.x264-BiPOLAR 5.60GB

[复制链接]
admin 发表于 2021-11-19 09:38:11 | 显示全部楼层 |阅读模式
偶像 The.Living.Idol.1957.720p.BluRay.x264-BiPOLAR 5.60GB                                                                                                                                                                                                                                                                                                                                                                                                                                                                                                                                        -->
帖子完整标题:偶像 The.Living.Idol.1957.720p.BluRay.x264-BiPOLAR 5.60GB



9b2842b3589abae0144372187de2436b.jpg



◎译  名 偶像
◎片  名 The Living Idol
◎年  代 1957
◎产  地 美国,墨西哥
◎类  别 冒险
◎语  言 英语
◎上映日期 
◎豆瓣评分 /10 from 0 users
◎豆瓣链接 
◎片  长 France: 96 分钟
◎导  演 勒内·卡多纳 René Cardona / 阿尔伯特·列文 Albert Lewin
◎编  剧 阿尔伯特·列文 Albert Lewin
◎主  演 史蒂夫·弗罗斯特 Steve Forrest
       莉莉安·蒙特维奇 Liliane Montevecchi
       詹姆斯·罗伯逊·贾斯蒂 James Robertson Justice
       萨拉·加西亚 Sara García
       爱德华多·诺列加 Eduardo Noriega
       爱德华多·诺列加 Eduardo Noriega

◎标  签 记号 | 美国电影 | 美国 | 暂存 | 惊悚 | 冒险

◎简  介

  暂无相关剧情介绍
Video
ID                                       : 1
Format                                   : AVC
Format/Info                              : Advanced Video Codec
Format profile                           :
Format settings                          : CABAC / 11 Ref Frames
Format settings, CABAC                   : Yes
Format settings, Reference frames        : 11 frames
Codec ID                                 : V_MPEG4/ISO/AVC
Duration                                 : 1 h 41 min
Bit rate                                 : 7 704 kb/s
Width                                    : 1 280 pixels
Height                                   : 552 pixels
Display aspect ratio                     : 2.35:1
Frame rate mode                          : Constant
Frame rate                               : 23.976 (24000/1001/189150) FPS
Color space                              : YUV
Chroma subsampling                       : 4:2:0
Bit depth                                : 8 bits
Scan type                                : Progressive
Bits/(Pixel*Frame)                       : 0.455
Stream size                              : 5.44 GiB (97%)
Writing library                          : x264 core 164 r3075 66a5bc1
Encoding settings                        : cabac=1 / ref=11 / deblock=1:-3:-3 / analyse=0x3:0x133 / me=umh / subme=10 / psy=1 / psy_rd=1.00:0.15 / mixed_ref=1 / me_range=24 / chroma_me=1 / trellis=2 / 8x8dct=1 / cqm=0 / deadzone=21,11 / fast_pskip=1 / chroma_qp_offset=-3 / threads=17 / lookahead_threads=2 / sliced_threads=0 / nr=0 / decimate=1 / interlaced=0 / bluray_compat=0 / constrained_intra=0 / bframes=8 / b_pyramid=2 / b_adapt=2 / b_bias=0 / direct=3 / weightb=1 / open_gop=0 / weightp=2 / keyint=250 / keyint_min=23 / scenecut=40 / intra_refresh=0 / rc_lookahead=60 / rc=crf / mbtree=1 / crf=17.2 / qcomp=0.60 / qpmin=0 / qpmax=69 / qpstep=4 / ip_ratio=1.40 / aq=3:0.50
Language                                 : English
Default                                  : Yes
Forced                                   : No
Color range                              : Limited
Matrix coefficients                      : BT.709

Audio
ID                                       : 2
Format                                   : FLAC
Format/Info                              : Free Lossless Audio Codec
Codec ID                                 : A_FLAC
Duration                                 : 1 h 41 min
Bit rate mode                            : Variable
Bit rate                                 : 210 kb/s
Channel(s)                               : 2 channels
Channel layout                           : L R
Sampling rate                            : 48.0 kHz
Frame rate                               : 11.719 FPS (4096 SPF)
Bit depth                                : 16 bits
Compression mode                         : Lossless
Stream size                              : 152 MiB (3%)
Writing library                          : libFLAC 1.2.1 (UTC 2007-09-17)
Language                                 : English
Default                                  : Yes
Forced                                   : No

Text #1
ID                                       : 3
Format                                   : UTF-8
Codec ID                                 : S_TEXT/UTF8
Codec ID/Info                            : UTF-8 Plain Text
Duration                                 : 1 h 38 min
Bit rate                                 : 64 b/s
Count of elements                        : 1286
Stream size                              : 46.2 KiB (0%)
Title                                    : English
Language                                 : English
Default                                  : No
Forced                                   : No

Text #2
ID                                       : 4
Format                                   : UTF-8
Codec ID                                 : S_TEXT/UTF8
Codec ID/Info                            : UTF-8 Plain Text
Duration                                 : 1 h 40 min
Bit rate                                 : 67 b/s
Count of elements                        : 1485
Stream size                              : 49.8 KiB (0%)
Title                                    : English SDH
Language                                 : English
Default                                  : No
Forced                                   : No

Text #3
ID                                       : 5
Format                                   : PGS
Muxing mode                              : zlib
Codec ID                                 : S_HDMV/PGS
Codec ID/Info                            : Picture based subtitle format used on BDs/HD-DVDs
Duration                                 : 1 h 40 min
Bit rate                                 : 16.8 kb/s
Count of elements                        : 2971
Stream size                              : 12.1 MiB (0%)
Title                                    : English SDH
Language                                 : English
Default                                  : No
Forced                                   : No

Menu
00:00:00.000                             : en:00:00:00.000
00:09:27.776                             : en:00:09:27.776
00:21:50.935                             : en:00:21:50.935
00:29:46.618                             : en:00:29:46.618
00:40:57.580                             : en:00:40:57.580
00:48:26.904                             : en:00:48:26.904
01:03:01.778                             : en:01:03:01.778
01:14:02.438                             : en:01:14:02.438
01:20:21.942                             : en:01:20:21.942
01:31:12.467                             : en:01:31:12.467

fdeaa2dcc7599e70a7449c69da6e7523.jpg





                                                                                                                                                                                                        
                                                                                                                                                                                                                                                                                                                                                                                                                                                                                                                                                                                                                                                                                                                                                                                                                                                        
2723b0bf66fce45dd0c24c434bb7b4f7.torrent (18.29 KB, 下载次数: 0)

回复

使用道具 举报

小黑屋|西西论坛

本网站所有资源来自网络,如无意中侵犯了您的权益,请发邮件至 [email protected],立即清除相关链接

GMT+8, 2021-12-3 16:07 , Processed in 0.115083 second(s), 17 queries .

Powered by Discuz! X3.2

© 2001-2013 Comsenz Inc.

快速回复 返回顶部 返回列表