西西论坛

 找回密码
 立即注册
搜索

圣女贞德的审判 The.Trial.of.Joan.of.Arc.1962.FRENCH.1080p.BluRay.x264.AAC2.0-EA ...

[复制链接]
admin 发表于 2021-11-18 09:37:33 | 显示全部楼层 |阅读模式
圣女贞德的审判 The.Trial.of.Joan.of.Arc.1962.FRENCH.1080p.BluRay.x264.AAC2.0-EA 9.21GB                                                                                                                                                                                                                                                                                                                                                                                                                                                                                                                                        -->
帖子完整标题:圣女贞德的审判 The.Trial.of.Joan.of.Arc.1962.FRENCH.1080p.BluRay.x264.AAC2.0-EA 9.21GB



9874eaa8ccd20303672aaf6b8bf18239.jpg



◎译  名 圣女贞德的审判/The Trial of Joan of Arc
◎片  名 Procès de Jeanne d'Arc
◎年  代 1962
◎产  地 法国
◎类  别 剧情 / 战争
◎语  言 法语,英语
◎上映日期 1962-05-30
◎豆瓣评分 7.9/10 from 2114 users
◎豆瓣链接 
◎片  长 65 分钟
◎导  演 罗伯特·布列松 Robert Bresson
◎编  剧 罗伯特·布列松 Robert Bresson
◎主  演 弗洛朗丝·德莱 Florence Delay
       Donald O'Brien Donald O'Brien
       迈克尔·威廉斯 Michael Williams
       让-克洛德·富尔诺 Jean-Claude Fourneau

◎标  签 法国 | 罗伯特·布列松 | 布列松 | 宗教 | 法国电影 | 1962 | RobertBresson | 1960s

◎简  介

  羅伯特.布列松的結構主義代表作,Ms.Florence (《夜行列車》)主演,榮獲嘎納電影節評委會大獎、人道精神獎。本片是影史上第4部根據聖女貞德傳奇改編的影片,是布列松繼《越獄者》、《扒手》后,在結構主義及簡約風格的特色上最圓熟的作品,聖女貞德的含冤莫辨,透過導演豐富的電影語言說得十分清楚,布列松一向重視電影的聲音、影響、語言及結構的作用,本片可以説是體現他這個電影意念的重要作品,他說:“儅我製作《聖女貞德的審判》時,我要求我所挑選的女孩一刻也不要想她曾進或可以是貞德,僅此而已。”

◎获奖情况

  第15届戛纳电影节 ?(1962)
  主竞赛单元金棕榈奖(提名) 罗伯特·布列松
  主竞赛单元评审团特别奖 罗伯特·布列松
  OCICAward 罗伯特·布列松
Video
ID                                       : 1
Format                                   : AVC
Format/Info                              : Advanced Video Codec
Format profile                           :
Format settings                          : CABAC / 4 Ref Frames
Format settings, CABAC                   : Yes
Format settings, Reference frames        : 4 frames
Codec ID                                 : V_MPEG4/ISO/AVC
Duration                                 : 1 h 4 min
Bit rate                                 : 20.4 Mb/s
Width                                    : 1 800 pixels
Height                                   : 1 080 pixels
Display aspect ratio                     : 5:3
Frame rate mode                          : Constant
Frame rate                               : 24.000 FPS
Color space                              : YUV
Chroma subsampling                       : 4:2:0
Bit depth                                : 8 bits
Scan type                                : Progressive
Bits/(Pixel*Frame)                       : 0.437
Stream size                              : 9.15 GiB (99%)
Title                                    : -EA
Writing library                          : x264 core 157 r2970+47 cae74a0 t_mod_New [ X86_64]
Encoding settings                        : cabac=1 / ref=4 / deblock=1:-3:-3 / analyse=0x3:0x113 / me=umh / subme=10 / psy=1 / fade_compensate=0.00 / psy_rd=1.08:0.00 / mixed_ref=1 / me_range=32 / chroma_me=1 / trellis=2 / 8x8dct=1 / cqm=0 / deadzone=21,11 / fast_pskip=0 / chroma_qp_offset=-2 / threads=24 / lookahead_threads=6 / sliced_threads=0 / nr=0 / decimate=0 / interlaced=0 / bluray_compat=0 / constrained_intra=0 / fgo=0 / bframes=12 / b_pyramid=2 / b_adapt=2 / b_bias=0 / direct=3 / weightb=1 / open_gop=0 / weightp=2 / keyint=240 / keyint_min=24 / scenecut=40 / intra_refresh=0 / rc_lookahead=60 / rc=crf / mbtree=0 / crf=18.4000 / qcomp=0.65 / qpmin=0:0:0 / qpmax=69:69:69 / qpstep=4 / vbv_maxrate=62500 / vbv_bufsize=78125 / crf_max=0.0 / nal_hrd=none / filler=0 / ip_ratio=1.30 / pb_ratio=1.20 / aq=3:0.55 / aq-sensitivity=10.00 / aq-factor=1.00:1.00:1.00 / aq2=0 / aq3=0
Language                                 : French
Default                                  : Yes
Forced                                   : No
Color range                              : Limited
Color primaries                          : BT.709
Transfer characteristics                 : BT.709
Matrix coefficients                      : BT.709

Audio
ID                                       : 2
Format                                   : AAC LC
Format/Info                              : Advanced Audio Codec Low Complexity
Codec ID                                 : A_AAC-2
Duration                                 : 1 h 4 min
Bit rate                                 : 125 kb/s
Channel(s)                               : 2 channels
Channel layout                           : L R
Sampling rate                            : 48.0 kHz
Frame rate                               : 46.875 FPS (1024 SPF)
Compression mode                         : Lossy
Delay relative to video                  : 20 ms
Stream size                              : 57.5 MiB (1%)
Language                                 : French
Default                                  : Yes
Forced                                   : No

Text #1
ID                                       : 3
Format                                   : UTF-8
Codec ID                                 : S_TEXT/UTF8
Codec ID/Info                            : UTF-8 Plain Text
Duration                                 : 1 h 0 min
Bit rate                                 : 52 b/s
Count of elements                        : 643
Stream size                              : 23.6 KiB (0%)
Language                                 : English
Default                                  : Yes
Forced                                   : Yes

Text #2
ID                                       : 4
Format                                   : PGS
Muxing mode                              : zlib
Codec ID                                 : S_HDMV/PGS
Codec ID/Info                            : Picture based subtitle format used on BDs/HD-DVDs
Duration                                 : 1 h 0 min
Bit rate                                 : 19.2 kb/s
Count of elements                        : 1286
Stream size                              : 8.34 MiB (0%)
Title                                    : sup
Language                                 : English
Default                                  : No
Forced                                   : No

Text #3
ID                                       : 5
Format                                   : PGS
Muxing mode                              : zlib
Codec ID                                 : S_HDMV/PGS
Codec ID/Info                            : Picture based subtitle format used on BDs/HD-DVDs
Duration                                 : 53 min 21 s
Bit rate                                 : 1 881 b/s
Count of elements                        : 86
Stream size                              : 735 KiB (0%)
Title                                    : sup
Language                                 : French
Default                                  : No
Forced                                   : No

Text #4
ID                                       : 6
Format                                   : PGS
Muxing mode                              : zlib
Codec ID                                 : S_HDMV/PGS
Codec ID/Info                            : Picture based subtitle format used on BDs/HD-DVDs
Duration                                 : 1 h 3 min
Bit rate                                 : 36.5 kb/s
Count of elements                        : 1600
Stream size                              : 16.7 MiB (0%)
Title                                    : sup
Language                                 : French
Default                                  : No
Forced                                   : No

Menu
00:00:00.000                             : :Chapter 01
00:10:11.458                             : :Chapter 02
00:21:46.625                             : :Chapter 03
00:32:31.791                             : :Chapter 04
00:41:44.875                             : :Chapter 05
00:50:58.666                             : :Chapter 06

162e90cb9630dc7fcc14b86b26792083.png

[/url]304083b17502517823b041ce2e221547.png

[/url]



                                                                                                                                                                                                        
                                                                                                                                                                                                                                                                                                                                                                                                                                                                                                                                                                                                                                                                                                                                                                                                                                                        
054ff3ee1d868291d468765c9cfdbb97.torrent (23.68 KB, 下载次数: 0)

回复

使用道具 举报

小黑屋|西西论坛

本网站所有资源来自网络,如无意中侵犯了您的权益,请发邮件至 [email protected],立即清除相关链接

GMT+8, 2021-11-28 10:38 , Processed in 0.131977 second(s), 17 queries .

Powered by Discuz! X3.2

© 2001-2013 Comsenz Inc.

快速回复 返回顶部 返回列表