西西论坛

 找回密码
 立即注册
搜索

武士兰士诺 Lancelot.of.the.Lake.1974.FRENCH.1080p.BluRay.x264.FLAC2.0-EA 13.87GB ...

[复制链接]
admin 发表于 2021-11-18 09:37:30 | 显示全部楼层 |阅读模式
武士兰士诺 Lancelot.of.the.Lake.1974.FRENCH.1080p.BluRay.x264.FLAC2.0-EA 13.87GB                                                                                                                                                                                                                                                                                                                                                                                                                                                                                                                                        -->
帖子完整标题:武士兰士诺 Lancelot.of.the.Lake.1974.FRENCH.1080p.BluRay.x264.FLAC2.0-EA 13.87GB



cfc93ba408feb04e8d99394febac09d0.jpg



◎译  名 武士兰士诺/Lancelot of the Lake/武士兰斯洛特/湖上的朗斯洛/湖上骑士兰斯洛特
◎片  名 Lancelot du Lac
◎年  代 1974
◎产  地 法国,意大利
◎类  别 剧情 / 爱情 / 历史
◎语  言 法语
◎上映日期 1974-09-26
◎豆瓣评分 7.5/10 from 1376 users
◎豆瓣链接 
◎片  长 Hong Kong: 85 分钟
◎导  演 罗伯特·布列松 Robert Bresson
◎编  剧 罗伯特·布列松 Robert Bresson
◎主  演 赫伯特·巴尚 Humbert Balsan

◎标  签 法国 | 布列松 | 罗伯特·布列松 | 法国电影 | RobertBresson | 1974 | Robert_Bresson | 1970s

◎简  介

  故事发生在寻找圣杯的最后几天,当亚瑟王的武士们策马穿过一片充满黑暗、险象环生的丛林,一无所获回到卡默洛特(亚瑟王的宫殿)后,他们的队伍被解散,士气顿失。在他们中间,一位名为兰斯洛特的武士,对此次失败感到深深自责。他认为正是他和格温娜维尔皇后的偷情摧毁了这次神圣的使命。失败的阴影笼罩着一切,辉煌华丽的宫廷呈现出一个即将结束的年代的衰败气象。

◎获奖情况

  第27届戛纳电影节 ?(1974)
  费比西奖ParallelSection 罗伯特·布列松
Video
ID                                       : 1
Format                                   : AVC
Format/Info                              : Advanced Video Codec
Format profile                           :
Format settings                          : CABAC / 4 Ref Frames
Format settings, CABAC                   : Yes
Format settings, Reference frames        : 4 frames
Codec ID                                 : V_MPEG4/ISO/AVC
Duration                                 : 1 h 24 min
Bit rate                                 : 23.2 Mb/s
Width                                    : 1 790 pixels
Height                                   : 1 080 pixels
Display aspect ratio                     : 5:3
Frame rate mode                          : Constant
Frame rate                               : 23.976 (24000/1001/189150) FPS
Color space                              : YUV
Chroma subsampling                       : 4:2:0
Bit depth                                : 8 bits
Scan type                                : Progressive
Bits/(Pixel*Frame)                       : 0.501
Stream size                              : 13.7 GiB (99%)
Title                                    : -EA
Writing library                          : x264 core 159 r2991+49 524a90c t_mod_New [ X86_64]
Encoding settings                        : cabac=1 / ref=4 / deblock=1:-3:-3 / analyse=0x3:0x133 / me=umh / subme=10 / psy=1 / fade_compensate=0.00 / psy_rd=1.08:0.00 / mixed_ref=1 / me_range=32 / chroma_me=1 / trellis=2 / 8x8dct=1 / cqm=0 / deadzone=21,11 / fast_pskip=0 / chroma_qp_offset=-2 / threads=18 / lookahead_threads=4 / sliced_threads=0 / nr=0 / decimate=0 / interlaced=0 / bluray_compat=0 / constrained_intra=0 / fgo=0 / bframes=10 / b_pyramid=2 / b_adapt=2 / b_bias=0 / direct=3 / weightb=1 / open_gop=0 / weightp=2 / keyint=240 / keyint_min=23 / scenecut=40 / intra_refresh=0 / rc_lookahead=60 / rc=crf / mbtree=0 / crf=17.0500 / qcomp=0.65 / qpmin=0:0:0 / qpmax=69:69:69 / qpstep=4 / vbv_maxrate=62500 / vbv_bufsize=78125 / crf_max=0.0 / nal_hrd=none / filler=0 / ip_ratio=1.30 / pb_ratio=1.20 / aq=3:0.60 / aq-sensitivity=10.00 / aq-factor=1.00:1.00:1.00 / aq2=0 / aq3=0
Language                                 : French
Default                                  : Yes
Forced                                   : No
Color range                              : Limited
Color primaries                          : BT.709
Transfer characteristics                 : BT.709
Matrix coefficients                      : BT.709

Audio
ID                                       : 2
Format                                   : FLAC
Format/Info                              : Free Lossless Audio Codec
Codec ID                                 : A_FLAC
Duration                                 : 1 h 24 min
Bit rate mode                            : Variable
Bit rate                                 : 249 kb/s
Channel(s)                               : 2 channels
Channel layout                           : L R
Sampling rate                            : 48.0 kHz
Frame rate                               : 11.719 FPS (4096 SPF)
Bit depth                                : 16 bits
Compression mode                         : Lossless
Stream size                              : 150 MiB (1%)
Writing library                          : libFLAC 1.2.1 (UTC 2007-09-17)
Language                                 : French
Default                                  : Yes
Forced                                   : No

Text #1
ID                                       : 3
Format                                   : UTF-8
Codec ID                                 : S_TEXT/UTF8
Codec ID/Info                            : UTF-8 Plain Text
Duration                                 : 1 h 20 min
Bit rate                                 : 33 b/s
Count of elements                        : 592
Stream size                              : 19.7 KiB (0%)
Title                                    : srt (Artifical Eye, PAL DVD)
Language                                 : English
Default                                  : Yes
Forced                                   : Yes

Text #2
ID                                       : 4
Format                                   : UTF-8
Codec ID                                 : S_TEXT/UTF8
Codec ID/Info                            : UTF-8 Plain Text
Duration                                 : 1 h 20 min
Bit rate                                 : 27 b/s
Count of elements                        : 496
Stream size                              : 16.1 KiB (0%)
Title                                    : srt (New Yorker, NTSC DVD)
Language                                 : English
Default                                  : No
Forced                                   : No

Text #3
ID                                       : 5
Format                                   : PGS
Muxing mode                              : zlib
Codec ID                                 : S_HDMV/PGS
Codec ID/Info                            : Picture based subtitle format used on BDs/HD-DVDs
Duration                                 : 1 h 21 min
Bit rate                                 : 29.0 kb/s
Count of elements                        : 1627
Stream size                              : 17.0 MiB (0%)
Title                                    : sup
Language                                 : Japanese
Default                                  : No
Forced                                   : No

Menu
00:00:00.000                             : :Chapter 01
00:12:51.604                             : :Chapter 02
00:22:42.361                             : :Chapter 03
00:30:29.911                             : :Chapter 04
00:42:15.616                             : :Chapter 05
00:52:41.909                             : :Chapter 06
01:04:28.406                             : :Chapter 07
01:16:17.615                             : :Chapter 08

3403cc264a827934c77e321fba7db3d6.png

[/url]4fe8130f6332685d6a7555fb64701829.png

[/url]972b64473f396797f7a164d5eae94361.png

[/url]



                                                                                                                                                                                                        
                                                                                                                                                                                                                                                                                                                                                                                                                                                                                                                                                                                                                                                                                                                                                                                                                                                        
425f39bf27c77aa6ce8e81603cdcf858.torrent (17.97 KB, 下载次数: 0)

回复

使用道具 举报

小黑屋|西西论坛

本网站所有资源来自网络,如无意中侵犯了您的权益,请发邮件至 [email protected],立即清除相关链接

GMT+8, 2021-11-28 11:04 , Processed in 0.106215 second(s), 17 queries .

Powered by Discuz! X3.2

© 2001-2013 Comsenz Inc.

快速回复 返回顶部 返回列表