西西论坛

 找回密码
 立即注册
搜索

龙卷风/龙卷风暴 Twister.1996.Remastered.1080p.BluRay.x264-PEGASUS 15.21GB

[复制链接]
admin 发表于 2021-11-18 09:37:27 | 显示全部楼层 |阅读模式
龙卷风/龙卷风暴 Twister.1996.Remastered.1080p.BluRay.x264-PEGASUS 15.21GB                                                                                                                                                                                                                                                                                                                                                                                                                                                                                                                                        -->
帖子完整标题:龙卷风/龙卷风暴 Twister.1996.Remastered.1080p.BluRay.x264-PEGASUS 15.21GB



ac9648c61cd156ee3cab6216584c64b8.jpg



◎译  名 龙卷风/龙卷风暴(港)
◎片  名 Twister
◎年  代 1996
◎产  地 美国
◎类  别 动作 / 冒险 / 灾难
◎语  言 英语
◎上映日期 1996-05-10
◎豆瓣评分 7.3/10 from 27945 users
◎豆瓣链接 
◎片  长 113 分钟
◎导  演 扬·德·邦特 Jan de Bont
◎编  剧 迈克尔·克莱顿 Michael Crichton / 安妮-玛丽·马丁 Anne-Marie Martin
◎主  演 海伦·亨特 Helen Hunt
       比尔·帕克斯顿 Bill Paxton
       加利·艾尔维斯 Cary Elwes
       杰米·格尔兹 Jami Gertz
       菲利普·塞默·霍夫曼 Philip Seymour Hoffman
       罗伊丝·史密斯 Lois Smith
       阿兰·卢克 Alan Ruck
       西恩·瓦兰 Sean Whalen
       斯科特·汤姆森 Scott Thomson
       托德·菲尔德 Todd Field
       乔伊·斯洛特尼克 Joey Slotnick
       杰瑞米·戴维斯 Jeremy Davies
       扎克·格雷尼尔 Zach Grenier
       派特里克·费斯克勒 Patrick Fischler
       尼古拉斯·萨德勒 Nicholas Sadler
       本·韦伯 Ben Weber
       安东尼·拉普 Anthony Rapp
       埃里克·拉雷·哈维 Erik LaRay Harvey
       亚布拉哈姆·本鲁比 Abraham Benrubi
       杰克·布塞 Jake Busey
       拉丝蒂·休默 Rusty Schwimmer
       阿丽夏·维加 Alexa Vega
       达里尔·考克斯 Darryl Cox
       Ben Jackson Ben Jackson

◎标  签 灾难 | 美国 | 美国电影 | 科幻 | 龙卷风 | 灾难片 | 1996 | 电影

◎简  介

  龙卷风的暴戾和神秘吸引了大批科学家的深入研究,深入风暴中间是最危险的行为,但亦是探索龙卷风最有效的方法。乔(海伦·亨特 Helen Hunt饰)和离婚的丈夫比尔(比尔·帕克斯顿 Bill Paxton饰)就是这类“与龙共舞”的科学家,即使他们感情已经破裂,比尔也已找到新的恋人,但出于对龙卷风研究的痴迷,他们还是决定共同追逐一场俄克拉何马州的飓风,并把新研制成功的探测仪“多萝西”放到龙卷风中心收集数据。
  
  他们驾驶着破旧的货车,带领着追风队,向最危险的地方进发。同时,另一队装备精良的人马也朝着这个方向驶去,由裘纳(加利·艾尔维斯 Cary Elwes饰)领队,在追风行动中和乔激励较劲。
  
  一边是志同道合的乔,一边是畏惧惊险生活的新女友,比尔在追风过程中如何重新抉择自己的感情道路?更重要的是,面对实力雄厚的对手,和随时葬身其中的龙卷风,乔和比尔如何实现自己的追风梦想?

◎获奖情况

  第69届奥斯卡金像奖 ?(1997)
  最佳视觉效果(提名) 哈比布·扎尔加普尔?/?斯蒂芬·范米尔?/?约翰·弗雷泽?/?亨利·拉伯塔
  最佳音响(提名) 格雷格·兰达克?/?凯文·奥康奈尔?/?杰弗里·帕特森?/?史蒂夫·马斯洛
Video
ID                                       : 1
Format                                   : AVC
Format/Info                              : Advanced Video Codec
Format profile                           :
Format settings                          : CABAC / 5 Ref Frames
Format settings, CABAC                   : Yes
Format settings, Reference frames        : 5 frames
Codec ID                                 : V_MPEG4/ISO/AVC
Duration                                 : 1 h 52 min
Bit rate                                 : 15.2 Mb/s
Width                                    : 1 920 pixels
Height                                   : 792 pixels
Display aspect ratio                     : 2.40:1
Frame rate mode                          : Constant
Frame rate                               : 23.976 (24000/1001/189150) FPS
Color space                              : YUV
Chroma subsampling                       : 4:2:0
Bit depth                                : 8 bits
Scan type                                : Progressive
Bits/(Pixel*Frame)                       : 0.416
Stream size                              : 12.0 GiB (79%)
Writing library                          : x264 core 163 r3059 b684ebe0
Encoding settings                        : cabac=1 / ref=5 / deblock=1:-3:-3 / analyse=0x3:0x133 / me=umh / subme=10 / psy=1 / psy_rd=1.00:0.00 / mixed_ref=1 / me_range=32 / chroma_me=1 / trellis=2 / 8x8dct=1 / cqm=0 / deadzone=21,11 / fast_pskip=0 / chroma_qp_offset=-2 / threads=25 / lookahead_threads=6 / sliced_threads=0 / nr=0 / decimate=0 / interlaced=0 / bluray_compat=0 / constrained_intra=0 / bframes=16 / b_pyramid=2 / b_adapt=2 / b_bias=0 / direct=3 / weightb=1 / open_gop=0 / weightp=2 / keyint=240 / keyint_min=24 / scenecut=40 / intra_refresh=0 / rc_lookahead=60 / rc=crf / mbtree=0 / crf=21.2 / qcomp=0.60 / qpmin=0 / qpmax=69 / qpstep=4 / vbv_maxrate=62500 / vbv_bufsize=78125 / crf_max=0.0 / nal_hrd=none / filler=0 / ip_ratio=1.40 / pb_ratio=1.30 / aq=2:1.00
Default                                  : Yes
Forced                                   : No
Color range                              : Limited
Color primaries                          : BT.709
Transfer characteristics                 : BT.709
Matrix coefficients                      : BT.709

Audio #1
ID                                       : 2
Format                                   : MLP FBA 16-ch
Format/Info                              : Meridian Lossless Packing FBA with 16-channel presentation
Commercial name                          : Dolby TrueHD with Dolby Atmos
Codec ID                                 : A_TRUEHD
Duration                                 : 1 h 52 min
Bit rate mode                            : Variable
Bit rate                                 : 3 867 kb/s
Maximum bit rate                         : 6 732 kb/s
Channel(s)                               : 8 channels
Channel layout                           : L R C LFE Ls Rs Lb Rb
Sampling rate                            : 48.0 kHz
Frame rate                               : 1 200.000 FPS (40 SPF)
Compression mode                         : Lossless
Delay relative to video                  : 1 s 1 ms
Stream size                              : 3.05 GiB (20%)
Language                                 : English
Default                                  : Yes
Forced                                   : No
Number of dynamic objects                : 13
Bed channel count                        : 1 channel
Bed channel configuration                : LFE

Audio #2
ID                                       : 3
Format                                   : AAC LC
Format/Info                              : Advanced Audio Codec Low Complexity
Codec ID                                 : A_AAC-2
Duration                                 : 1 h 52 min
Bit rate                                 : 140 kb/s
Channel(s)                               : 2 channels
Channel layout                           : L R
Sampling rate                            : 48.0 kHz
Frame rate                               : 46.875 FPS (1024 SPF)
Compression mode                         : Lossy
Stream size                              : 113 MiB (1%)
Title                                    : Commentary by director Jan de Bont and special effects supervisor Stefen Fangmeier
Language                                 : English
Default                                  : No
Forced                                   : No

Text #1
ID                                       : 4
Format                                   : PGS
Muxing mode                              : zlib
Codec ID                                 : S_HDMV/PGS
Codec ID/Info                            : Picture based subtitle format used on BDs/HD-DVDs
Duration                                 : 1 h 44 min
Bit rate                                 : 36.2 kb/s
Count of elements                        : 2690
Stream size                              : 27.0 MiB (0%)
Language                                 : English
Default                                  : No
Forced                                   : No

Text #2
ID                                       : 5
Format                                   : PGS
Muxing mode                              : zlib
Codec ID                                 : S_HDMV/PGS
Codec ID/Info                            : Picture based subtitle format used on BDs/HD-DVDs
Duration                                 : 1 h 45 min
Bit rate                                 : 39.0 kb/s
Count of elements                        : 2900
Stream size                              : 29.3 MiB (0%)
Title                                    : SDH
Language                                 : English
Default                                  : No
Forced                                   : No

Text #3
ID                                       : 6
Format                                   : PGS
Muxing mode                              : zlib
Codec ID                                 : S_HDMV/PGS
Codec ID/Info                            : Picture based subtitle format used on BDs/HD-DVDs
Duration                                 : 1 h 52 min
Bit rate                                 : 59.8 kb/s
Count of elements                        : 3724
Stream size                              : 48.2 MiB (0%)
Title                                    : Subtitles for Commentary
Language                                 : English
Default                                  : No
Forced                                   : No

Menu
00:00:00.000                             : :Opening and 1960 Prologue
00:04:51.500                             : :A Long Day Ahead
00:09:01.124                             : :One More Signature
00:13:14.877                             : orothy
00:18:53.633                             : :The Corporate Kissbutt
00:24:32.012                             : :Something in the Wind: Storm Chaser Medley
00:29:32.813                             : :Intercept Course...in a Rut
00:35:55.987                             : :Battle Zone of a Sidewinder
00:41:33.783                             : :Cow in the Core
00:45:08.206                             : :Tall Tales of the Extreme
00:52:42.326                             : :Rabbit Tracks
00:58:07.150                             : :In Harm\'s Way
01:02:11.811                             : :In Front of Jo and Melissa
01:05:39.644                             : :The Shining
01:10:18.297                             : :Helter Skelter Shelter
01:15:12.425                             : :\"I Can\'t Compete with This\"
01:18:14.106                             : :Wakita in Ruins; Rescuing Meg
01:25:46.224                             : :Making Dorothy Fly
01:31:34.447                             : :Right at Jonas
01:35:47.408                             : odging Deadly Debris
01:38:37.286                             : :Had a Farm
01:41:27.123                             : :Hang on!
01:43:34.917                             : :Seen Enough Sky
01:45:52.972                             : :End Credits (Respect the Wind)

b315c8a19dbd9ce53af5d6c23e1f214a.jpg





                                                                                                                                                                                                        
                                                                                                                                                                                                                                                                                                                                                                                                                                                                                                                                                                                                                                                                                                                                                                                                                                                        
67fe8d57d761763f03b8e9c28b5836bc.torrent (19.84 KB, 下载次数: 0)

回复

使用道具 举报

小黑屋|西西论坛

本网站所有资源来自网络,如无意中侵犯了您的权益,请发邮件至 [email protected],立即清除相关链接

GMT+8, 2021-11-28 10:52 , Processed in 0.151262 second(s), 17 queries .

Powered by Discuz! X3.2

© 2001-2013 Comsenz Inc.

快速回复 返回顶部 返回列表