西西论坛

 找回密码
 立即注册
搜索

温柔的怜悯/温柔的慈悲 Tender.Mercies.1983.iNTERNAL.720p.BluRay.x264-PEGASUS 4.60 ...

[复制链接]
admin 发表于 2021-11-17 09:36:27 | 显示全部楼层 |阅读模式
温柔的怜悯/温柔的慈悲 Tender.Mercies.1983.iNTERNAL.720p.BluRay.x264-PEGASUS 4.60GB                                                                                                                                                                                                                                                                                                                                                                                                                                                                                                                                        -->
帖子完整标题:温柔的怜悯/温柔的慈悲 Tender.Mercies.1983.iNTERNAL.720p.BluRay.x264-PEGASUS 4.60GB



87e071aa9bfdef72737cda702983f102.jpg



◎译  名 温柔的怜悯/温柔的慈悲
◎片  名 Tender Mercies
◎年  代 1983
◎产  地 美国
◎类  别 剧情 / 音乐
◎语  言 英语
◎上映日期 1983-03-04
◎豆瓣评分 8.2/10 from 4378 users
◎豆瓣链接 
◎片  长 92分钟
◎导  演 布鲁斯·贝尔斯福德 Bruce Beresford
◎编  剧 霍顿·福特 Horton Foote
◎主  演 罗伯特·杜瓦尔 Robert Duvall
       泰丝·哈珀 Tess Harper
       贝蒂·巴克利 Betty Buckley
       威尔福德·布利姆雷 Wilford Brimley
       艾伦·巴金 Ellen Barkin
       Allan Hubbard Allan Hubbard
       Oliver Seale Oliver Seale
       哈伦·乔丹 Harlan Jordan
       Helena Humann Helena Humann
       保罗·格里森 Paul Gleason
       Tony Frank Tony Frank
       林尼·冯·多伦 Lenny von Dohlen

◎标  签 美国 | 剧情 | 音乐 | 美国电影 | 奥斯卡 | 1983 | 故事 | 罗伯特.杜瓦尔

◎简  介

  一个过气落魄的乡村歌手,在人生的道路上尝尽了酸、甜、苦、辣,但真诚的关怀,终于使他再度鼓起勇气面对社会,而不懈的努力也再次赢得大众的尊敬。

◎获奖情况

  第56届奥斯卡金像奖 ?(1984)
  最佳影片(提名) 菲利普·霍贝尔
  最佳导演(提名) 布鲁斯·贝尔斯福德
  最佳男主角 罗伯特·杜瓦尔
  最佳原创剧本 霍顿·福特
  最佳原创歌曲(提名) 鲍比·哈特?/?奥斯汀·罗伯茨
  
  第36届戛纳电影节 ?(1983)
  主竞赛单元金棕榈奖(提名) 布鲁斯·贝尔斯福德
Video
ID                                       : 1
Format                                   : AVC
Format/Info                              : Advanced Video Codec
Format profile                           :
Format settings                          : CABAC / 9 Ref Frames
Format settings, CABAC                   : Yes
Format settings, Reference frames        : 9 frames
Codec ID                                 : V_MPEG4/ISO/AVC
Duration                                 : 1 h 32 min
Bit rate                                 : 6 729 kb/s
Width                                    : 1 280 pixels
Height                                   : 690 pixels
Display aspect ratio                     : 1.85:1
Frame rate mode                          : Constant
Frame rate                               : 23.976 (24000/1001/189150) FPS
Color space                              : YUV
Chroma subsampling                       : 4:2:0
Bit depth                                : 8 bits
Scan type                                : Progressive
Bits/(Pixel*Frame)                       : 0.318
Stream size                              : 4.33 GiB (94%)
Writing library                          : x264 core 163 r3059 b684ebe0
Encoding settings                        : cabac=1 / ref=9 / deblock=1:-3:-3 / analyse=0x3:0x133 / me=umh / subme=10 / psy=1 / psy_rd=1.00:0.00 / mixed_ref=1 / me_range=32 / chroma_me=1 / trellis=2 / 8x8dct=1 / cqm=0 / deadzone=21,11 / fast_pskip=0 / chroma_qp_offset=-2 / threads=22 / lookahead_threads=5 / sliced_threads=0 / nr=0 / decimate=0 / interlaced=0 / bluray_compat=0 / constrained_intra=0 / bframes=16 / b_pyramid=2 / b_adapt=2 / b_bias=0 / direct=3 / weightb=1 / open_gop=0 / weightp=2 / keyint=240 / keyint_min=24 / scenecut=40 / intra_refresh=0 / rc_lookahead=60 / rc=crf / mbtree=0 / crf=17.8 / qcomp=0.60 / qpmin=0 / qpmax=69 / qpstep=4 / vbv_maxrate=62500 / vbv_bufsize=78125 / crf_max=0.0 / nal_hrd=none / filler=0 / ip_ratio=1.40 / pb_ratio=1.30 / aq=2:1.00
Default                                  : Yes
Forced                                   : No
Color range                              : Limited
Color primaries                          : BT.709
Transfer characteristics                 : BT.709
Matrix coefficients                      : BT.709

Audio #1
ID                                       : 2
Format                                   : FLAC
Format/Info                              : Free Lossless Audio Codec
Codec ID                                 : A_FLAC
Duration                                 : 1 h 31 min
Bit rate mode                            : Variable
Bit rate                                 : 326 kb/s
Channel(s)                               : 2 channels
Channel layout                           : L R
Sampling rate                            : 48.0 kHz
Frame rate                               : 11.719 FPS (4096 SPF)
Bit depth                                : 16 bits
Compression mode                         : Lossless
Delay relative to video                  : 11 s 11 ms
Stream size                              : 214 MiB (5%)
Writing library                          : libFLAC 1.2.1 (UTC 2007-09-17)
Language                                 : English
Default                                  : Yes
Forced                                   : No

Audio #2
ID                                       : 3
Format                                   : AAC LC
Format/Info                              : Advanced Audio Codec Low Complexity
Codec ID                                 : A_AAC-2
Duration                                 : 1 h 31 min
Bit rate                                 : 79.2 kb/s
Channel(s)                               : 2 channels
Channel layout                           : L R
Sampling rate                            : 48.0 kHz
Frame rate                               : 46.875 FPS (1024 SPF)
Compression mode                         : Lossy
Delay relative to video                  : 11 s 11 ms
Stream size                              : 52.0 MiB (1%)
Title                                    : Commentary with film critic Simon Abrams
Language                                 : English
Default                                  : No
Forced                                   : No

Text
ID                                       : 4
Format                                   : PGS
Muxing mode                              : zlib
Codec ID                                 : S_HDMV/PGS
Codec ID/Info                            : Picture based subtitle format used on BDs/HD-DVDs
Duration                                 : 1 h 28 min
Bit rate                                 : 30.1 kb/s
Count of elements                        : 1328
Stream size                              : 19.0 MiB (0%)
Language                                 : English
Default                                  : No
Forced                                   : No

Menu
00:00:00.000                             : :Chapter 1
00:09:09.716                             : :Chapter 2
00:20:34.066                             : :Chapter 3
00:30:27.701                             : :Chapter 4
00:42:02.478                             : :Chapter 5
00:58:02.020                             : :Chapter 6
01:04:17.562                             : :Chapter 7
01:15:35.489                             : :Chapter 8
01:24:27.729                             : :Chapter 9





                                                                                                                                                                                                        
                                                                                                                                                                                                                                                                                                                                                                                                                                                                                                                                                                                                                                                                                                                                                                                                                                                        
9d7ef159c19fd33b3c5df3d6e35c2aa6.torrent (23.72 KB, 下载次数: 0)

回复

使用道具 举报

小黑屋|西西论坛

本网站所有资源来自网络,如无意中侵犯了您的权益,请发邮件至 [email protected],立即清除相关链接

GMT+8, 2021-12-3 15:49 , Processed in 0.121958 second(s), 17 queries .

Powered by Discuz! X3.2

© 2001-2013 Comsenz Inc.

快速回复 返回顶部 返回列表