西西论坛

 找回密码
 立即注册
搜索

女高音们 Our.Ladies.2019.720p.BluRay.x264.DTS-MT 3.55GB

[复制链接]
admin 发表于 2021-11-17 09:36:24 | 显示全部楼层 |阅读模式
女高音们 Our.Ladies.2019.720p.BluRay.x264.DTS-MT 3.55GB                                                                                                                                                                                                                                                                                                                                                                                                                                                                                                                                        -->
帖子完整标题:女高音们 Our.Ladies.2019.720p.BluRay.x264.DTS-MT 3.55GB



b584f98716871165cef0c7dcae0aa966.jpg



◎译  名 女高音们/The Sopranos
◎片  名 Our Ladies
◎年  代 2019
◎产  地 英国
◎类  别 剧情 / 喜剧
◎语  言 英语
◎上映日期 2019-10-04(伦敦电影节) / 2020-03-13(爱尔兰) / 2020-04-24(英国)
◎豆瓣评分 6.9/10 from 188 users
◎豆瓣链接 
◎片  长 105分钟
◎导  演 迈克尔·卡顿-琼斯 Michael Caton-Jones
◎编  剧 迈克尔·卡顿-琼斯 Michael Caton-Jones
◎主  演 罗斯·安德森 Ross Anderson
       埃弗·奥斯汀 Eve Austin
       凯特·迪基 Kate Dickie
       克里斯·弗尔顿 Chris Fulton
       杰克·格林利斯 Jack Greenlees
       大卫·海曼 David Hayman
       阿比盖尔·劳里 Abigail Lawrie
       斯图尔特·马丁 Stuart Martin
       萨莉·梅瑟姆 Sally Messham
       罗娜·莫里森 Rona Morison
       玛里·休 Marli Siu
       James Young James Young
       Jamie Quinn Jamie Quinn

◎标  签 英国 | 青春 | 喜剧 | 2019 | 英国电影 | 剧情 | 女性 | 罗斯·安德森

◎简  介

  In 1990s Scotland, a group of Catholic school girls get an opportunity to go into Edinburgh for a choir competition, but they're more interested in drinking, partying and hooking up than winning the competition.
Video
ID                                       : 1
Format                                   : AVC
Format/Info                              : Advanced Video Codec
Format profile                           :
Format settings                          : CABAC / 12 Ref Frames
Format settings, CABAC                   : Yes
Format settings, Reference frames        : 12 frames
Codec ID                                 : V_MPEG4/ISO/AVC
Duration                                 : 1 h 45 min
Bit rate                                 : 3 293 kb/s
Width                                    : 1 280 pixels
Height                                   : 536 pixels
Display aspect ratio                     : 2.40:1
Frame rate mode                          : Constant
Frame rate                               : 23.976 (24000/1001/189150) FPS
Color space                              : YUV
Chroma subsampling                       : 4:2:0
Bit depth                                : 8 bits
Scan type                                : Progressive
Bits/(Pixel*Frame)                       : 0.200
Stream size                              : 2.43 GiB (69%)
Writing library                          : x264 core 157 r2938 2b00a84  Mod
Encoding settings                        : cabac=1 / ref=12 / deblock=1:-3:-3 / analyse=0x3:0x133 / me=umh / subme=10 / psy=1 / psy_rd=1.05:0.00 / mixed_ref=1 / me_range=32 / chroma_me=1 / trellis=2 / 8x8dct=1 / cqm=0 / deadzone=21,11 / fast_pskip=0 / chroma_qp_offset=-2 / threads=12 / lookahead_threads=2 / sliced_threads=0 / nr=0 / decimate=0 / interlaced=0 / bluray_compat=0 / constrained_intra=0 / bframes=8 / b_pyramid=2 / b_adapt=2 / b_bias=0 / direct=3 / weightb=1 / open_gop=0 / weightp=2 / keyint=250 / keyint_min=24 / scenecut=40 / intra_refresh=0 / rc_lookahead=250 / rc=crf / mbtree=0 / crf=16.8 / qcomp=0.60 / qpmin=0 / qpmax=69 / qpstep=4 / vbv_maxrate=62500 / vbv_bufsize=78125 / crf_max=0.0 / nal_hrd=none / filler=0 / ip_ratio=1.30 / pb_ratio=1.20 / aq=3:0.80
Language                                 : English
Default                                  : Yes
Forced                                   : No
Color range                              : Limited
Color primaries                          : BT.709
Matrix coefficients                      : BT.709

Audio
ID                                       : 2
Format                                   : DTS
Format/Info                              : Digital Theater Systems
Codec ID                                 : A_DTS
Duration                                 : 1 h 45 min
Bit rate mode                            : Constant
Bit rate                                 : 1 509 kb/s
Channel(s)                               : 6 channels
Channel layout                           : C L R Ls Rs LFE
Sampling rate                            : 48.0 kHz
Frame rate                               : 93.750 FPS (512 SPF)
Bit depth                                : 24 bits
Compression mode                         : Lossy
Stream size                              : 1.11 GiB (31%)
Language                                 : English
Default                                  : Yes
Forced                                   : No

Text #1
ID                                       : 3
Format                                   : UTF-8
Codec ID                                 : S_TEXT/UTF8
Codec ID/Info                            : UTF-8 Plain Text
Duration                                 : 1 h 35 min
Bit rate                                 : 57 b/s
Count of elements                        : 1253
Stream size                              : 40.1 KiB (0%)
Language                                 : English
Default                                  : Yes
Forced                                   : No

Text #2
ID                                       : 4
Format                                   : UTF-8
Codec ID                                 : S_TEXT/UTF8
Codec ID/Info                            : UTF-8 Plain Text
Duration                                 : 1 h 44 min
Bit rate                                 : 60 b/s
Count of elements                        : 1403
Stream size                              : 46.6 KiB (0%)
Title                                    : SDH
Language                                 : English
Default                                  : No
Forced                                   : No

Menu
00:00:00.000                             : en:Chapter 01
00:10:01.935                             : en:Chapter 02
00:20:01.659                             : en:Chapter 03
00:30:02.551                             : en:Chapter 04
00:40:03.526                             : en:Chapter 05
00:50:03.792                             : en:Chapter 06
01:00:04.100                             : en:Chapter 07
01:10:05.159                             : en:Chapter 08
01:20:05.968                             : en:Chapter 09
01:30:07.193                             : en:Chapter 10
01:39:18.578                             : en:Chapter 11

d3b83789b42cf399bbf6460ac603c704.png

[/url]97c05b4648e694dd62ee1fc429d3c15e.png

[/url]



                                                                                                                                                                                                        
                                                                                                                                                                                                                                                                                                                                                                                                                                                                                                                                                                                                                                                                                                                                                                                                                                                        
df22a6aee1c7ac54245a40227b0c72ae.torrent (18.33 KB, 下载次数: 0)

回复

使用道具 举报

小黑屋|西西论坛

本网站所有资源来自网络,如无意中侵犯了您的权益,请发邮件至 [email protected],立即清除相关链接

GMT+8, 2021-12-3 15:25 , Processed in 0.097551 second(s), 17 queries .

Powered by Discuz! X3.2

© 2001-2013 Comsenz Inc.

快速回复 返回顶部 返回列表