西西论坛

 找回密码
 立即注册
搜索

惊魂夺宝/美国之夜 American.Night.2021.720p.BluRay.x264.DTS-MT 5.03GB

[复制链接]
admin 发表于 2021-11-17 09:36:20 | 显示全部楼层 |阅读模式
惊魂夺宝/美国之夜 American.Night.2021.720p.BluRay.x264.DTS-MT 5.03GB                                                                                                                                                                                                                                                                                                                                                                                                                                                                                                                                        -->
帖子完整标题:惊魂夺宝/美国之夜 American.Night.2021.720p.BluRay.x264.DTS-MT 5.03GB



12eb29988d39c34285b06e7d16a3f58a.jpg



◎译  名 惊魂夺宝/美国之夜
◎片  名 American Night
◎年  代 2021
◎产  地 意大利
◎类  别 动作 / 惊悚
◎语  言 英语
◎上映日期 2021-09-09(威尼斯电影节) / 2021-10-01(美国)
◎豆瓣评分 /10 from 0 users
◎豆瓣链接 
◎片  长 120 分钟
◎导  演 阿莱西奥·德拉·瓦勒 Alessio Della Valle
◎编  剧 阿莱西奥·德拉·瓦勒 Alessio Della Valle
◎主  演 帕斯·贝加 Paz Vega
       乔纳森·莱斯·梅耶斯 Jonathan Rhys Meyers
       埃米尔·赫斯基 Emile Hirsch
       杰里米·皮文 Jeremy Piven
       玛丽亚·格拉齐亚·库奇诺塔 Maria Grazia Cucinotta
       玛拉莱恩 Mara Lane
       马克·莱昂纳蒂 Marco Leonardi
       福图纳多 塞林诺 Fortunato Cerlino
       大卫·柯克·特雷勒 David Kirk Traylor
       安娜加西亚 Anastacia
       莱乔·瓦斯列夫 Raicho Vasilev
       Paudge Behan Paudge Behan
       Martina Vachkova Martina Vachkova
       Donatella Pompadour Donatella Pompadour

◎标  签 电影 | Jonathan | 动作 | 惊悚 | 纽约 | 暗黑系 | meyers | 美国

◎简  介

  乔纳森·莱斯·梅耶斯、埃米尔·赫斯基、帕斯·贝加([对她说])、杰里米·皮文([明日边缘])将携手出演黑色惊悚片[美国之夜](American Night,暂译)。影片将是Alessio Jim Della Valle的导演处女作,Valle亲自撰写剧本。影片讲述迈克尔·鲁比诺(赫斯基饰)刚刚成为纽约黑手党的头目,但他最大的梦想是将自己的一生奉献给绘画,并成为伟大的艺术家。艺术品经销商约翰·卡普兰(梅耶斯饰)的生活似乎一片混乱,但他仍拥有最能发现世界各地假货的双眼。当安迪·沃霍尔的《粉红玛丽莲》被偷走时,陌生的两人有了交集,而这一切也将颠覆他们的生活。
Video
ID                                       : 1
Format                                   : AVC
Format/Info                              : Advanced Video Codec
Format profile                           :
Format settings                          : CABAC / 12 Ref Frames
Format settings, CABAC                   : Yes
Format settings, Reference frames        : 12 frames
Codec ID                                 : V_MPEG4/ISO/AVC
Duration                                 : 2 h 4 min
Bit rate                                 : 4 278 kb/s
Width                                    : 1 280 pixels
Height                                   : 538 pixels
Display aspect ratio                     : 2.40:1
Frame rate mode                          : Constant
Frame rate                               : 23.976 (24000/1001/189150) FPS
Color space                              : YUV
Chroma subsampling                       : 4:2:0
Bit depth                                : 8 bits
Scan type                                : Progressive
Bits/(Pixel*Frame)                       : 0.259
Stream size                              : 3.71 GiB (74%)
Writing library                          : x264 core 157 r2938 2b00a84  Mod
Encoding settings                        : cabac=1 / ref=12 / deblock=1:-3:-3 / analyse=0x3:0x133 / me=umh / subme=10 / psy=1 / psy_rd=1.05:0.00 / mixed_ref=1 / me_range=32 / chroma_me=1 / trellis=2 / 8x8dct=1 / cqm=0 / deadzone=21,11 / fast_pskip=0 / chroma_qp_offset=-2 / threads=12 / lookahead_threads=2 / sliced_threads=0 / nr=0 / decimate=0 / interlaced=0 / bluray_compat=0 / constrained_intra=0 / bframes=8 / b_pyramid=2 / b_adapt=2 / b_bias=0 / direct=3 / weightb=1 / open_gop=0 / weightp=2 / keyint=250 / keyint_min=24 / scenecut=40 / intra_refresh=0 / rc_lookahead=250 / rc=crf / mbtree=0 / crf=16.8 / qcomp=0.60 / qpmin=0 / qpmax=69 / qpstep=4 / vbv_maxrate=62500 / vbv_bufsize=78125 / crf_max=0.0 / nal_hrd=none / filler=0 / ip_ratio=1.30 / pb_ratio=1.20 / aq=3:0.80
Language                                 : English
Default                                  : Yes
Forced                                   : No
Color range                              : Limited
Color primaries                          : BT.709
Matrix coefficients                      : BT.709

Audio
ID                                       : 2
Format                                   : DTS
Format/Info                              : Digital Theater Systems
Codec ID                                 : A_DTS
Duration                                 : 2 h 4 min
Bit rate mode                            : Constant
Bit rate                                 : 1 509 kb/s
Channel(s)                               : 6 channels
Channel layout                           : C L R Ls Rs LFE
Sampling rate                            : 48.0 kHz
Frame rate                               : 93.750 FPS (512 SPF)
Bit depth                                : 24 bits
Compression mode                         : Lossy
Stream size                              : 1.31 GiB (26%)
Language                                 : English
Default                                  : Yes
Forced                                   : No

Text #1
ID                                       : 3
Format                                   : UTF-8
Codec ID                                 : S_TEXT/UTF8
Codec ID/Info                            : UTF-8 Plain Text
Duration                                 : 2 h 2 min
Bit rate                                 : 37 b/s
Count of elements                        : 1124
Stream size                              : 33.8 KiB (0%)
Language                                 : English
Default                                  : Yes
Forced                                   : No

Text #2
ID                                       : 4
Format                                   : UTF-8
Codec ID                                 : S_TEXT/UTF8
Codec ID/Info                            : UTF-8 Plain Text
Duration                                 : 2 h 2 min
Bit rate                                 : 43 b/s
Count of elements                        : 1349
Stream size                              : 39.4 KiB (0%)
Title                                    : SDH
Language                                 : English
Default                                  : No
Forced                                   : No

Text #3
ID                                       : 5
Format                                   : PGS
Muxing mode                              : zlib
Codec ID                                 : S_HDMV/PGS
Codec ID/Info                            : Picture based subtitle format used on BDs/HD-DVDs
Duration                                 : 2 h 2 min
Bit rate                                 : 27.7 kb/s
Count of elements                        : 2886
Stream size                              : 24.3 MiB (0%)
Language                                 : English
Default                                  : No
Forced                                   : No

Menu
00:00:00.000                             : en:Chapter 01
00:11:53.004                             : en:Chapter 02
00:18:07.962                             : en:Chapter 03
00:30:19.609                             : en:Chapter 04
00:37:34.043                             : en:Chapter 05
00:44:06.394                             : en:Chapter 06
00:54:33.687                             : en:Chapter 07
01:04:28.782                             : en:Chapter 08
01:17:38.404                             : en:Chapter 09
01:30:45.732                             : en:Chapter 10
01:40:13.674                             : en:Chapter 11
01:55:15.492                             : en:Chapter 12

a51f83ce89d10be458cb753460b63976.png

[/url]c3e6bf0a6352245ce2be4a9570b3b2ec.png

[/url]76675e8e1f1dc93b8c21869f40e12889.png

[/url]



                                                                                                                                                                                                        
                                                                                                                                                                                                                                                                                                                                                                                                                                                                                                                                                                                                                                                                                                                                                                                                                                                        
aaa51405d7e74d3b6136bfb7f174dc8d.torrent (13.18 KB, 下载次数: 0)

回复

使用道具 举报

小黑屋|西西论坛

本网站所有资源来自网络,如无意中侵犯了您的权益,请发邮件至 [email protected],立即清除相关链接

GMT+8, 2021-12-3 14:57 , Processed in 0.147739 second(s), 17 queries .

Powered by Discuz! X3.2

© 2001-2013 Comsenz Inc.

快速回复 返回顶部 返回列表