西西论坛

 找回密码
 立即注册
搜索

铁血丹心 California.Conquest.1952.720p.BluRay.x264-PEGASUS 4.09GB

[复制链接]
admin 发表于 2021-11-16 09:35:17 | 显示全部楼层 |阅读模式
铁血丹心 California.Conquest.1952.720p.BluRay.x264-PEGASUS 4.09GB                                                                                                                                                                                                                                                                                                                                                                                                                                                                                                                                        -->
帖子完整标题:铁血丹心 California.Conquest.1952.720p.BluRay.x264-PEGASUS 4.09GB



f04b5e5b7f001cc738adbd43e738bc4e.jpg



◎译  名 铁血丹心
◎片  名 California Conquest
◎年  代 1952
◎产  地 美国
◎类  别 爱情 / 历史 / 西部 / 冒险
◎语  言 英语
◎上映日期 1952
◎豆瓣评分 /10 from 0 users
◎豆瓣链接 
◎片  长 78 分钟
◎导  演 卢·兰德斯 Lew Landers
◎主  演 柯纳·王尔德 Cornel Wilde
       特雷莎·怀特 Teresa Wright
       Alfonso Bedoya Alfonso Bedoya
       丽萨·费拉黛 Lisa Ferraday
       伦佐·切萨纳 Renzo Cesana
       Billy Wilkerson Billy Wilkerson
       Alex Montoya Alex Montoya
       Hank Patterson Hank Patterson
       Ivan Lebedeff Ivan Lebedeff
       Eugene Iglesias Eugene Iglesias
       约翰·德纳 John Dehner
       乔治·埃尔德雷奇 George Eldredge
       贝恩斯巴伦 Baynes Barron
       Edward Colmans Edward Colmans

◎标  签 美国 | 爱情 | 冒险 | WEB | 1952

◎简  介

  暂无相关剧情介绍
Video
ID                                       : 1
Format                                   : AVC
Format/Info                              : Advanced Video Codec
Format profile                           :
Format settings                          : CABAC / 12 Ref Frames
Format settings, CABAC                   : Yes
Format settings, Reference frames        : 12 frames
Codec ID                                 : V_MPEG4/ISO/AVC
Duration                                 : 1 h 19 min
Bit rate                                 : 6 667 kb/s
Width                                    : 956 pixels
Height                                   : 720 pixels
Display aspect ratio                     : 4:3
Frame rate mode                          : Constant
Frame rate                               : 23.976 (24000/1001/189150) FPS
Color space                              : YUV
Chroma subsampling                       : 4:2:0
Bit depth                                : 8 bits
Scan type                                : Progressive
Bits/(Pixel*Frame)                       : 0.404
Stream size                              : 3.70 GiB (90%)
Writing library                          : x264 core 163 r3059 b684ebe0
Encoding settings                        : cabac=1 / ref=12 / deblock=1:-3:-3 / analyse=0x3:0x133 / me=umh / subme=10 / psy=1 / psy_rd=1.00:0.00 / mixed_ref=1 / me_range=32 / chroma_me=1 / trellis=2 / 8x8dct=1 / cqm=0 / deadzone=21,11 / fast_pskip=0 / chroma_qp_offset=-2 / threads=22 / lookahead_threads=5 / sliced_threads=0 / nr=0 / decimate=0 / interlaced=0 / bluray_compat=0 / constrained_intra=0 / bframes=16 / b_pyramid=2 / b_adapt=2 / b_bias=0 / direct=3 / weightb=1 / open_gop=0 / weightp=2 / keyint=240 / keyint_min=24 / scenecut=40 / intra_refresh=0 / rc_lookahead=60 / rc=crf / mbtree=0 / crf=15.5 / qcomp=0.60 / qpmin=0 / qpmax=69 / qpstep=4 / vbv_maxrate=62500 / vbv_bufsize=78125 / crf_max=0.0 / nal_hrd=none / filler=0 / ip_ratio=1.40 / pb_ratio=1.30 / aq=2:1.00
Default                                  : Yes
Forced                                   : No
Color range                              : Limited
Color primaries                          : BT.709
Transfer characteristics                 : BT.709
Matrix coefficients                      : BT.709

Audio
ID                                       : 2
Format                                   : FLAC
Format/Info                              : Free Lossless Audio Codec
Codec ID                                 : A_FLAC
Duration                                 : 1 h 19 min
Bit rate mode                            : Variable
Bit rate                                 : 698 kb/s
Channel(s)                               : 2 channels
Channel layout                           : L R
Sampling rate                            : 48.0 kHz
Frame rate                               : 11.719 FPS (4096 SPF)
Bit depth                                : 24 bits
Compression mode                         : Lossless
Stream size                              : 396 MiB (9%)
Writing library                          : libFLAC 1.2.1 (UTC 2007-09-17)
Language                                 : English
Default                                  : Yes
Forced                                   : No

Text #1
ID                                       : 3
Format                                   : PGS
Muxing mode                              : zlib
Codec ID                                 : S_HDMV/PGS
Codec ID/Info                            : Picture based subtitle format used on BDs/HD-DVDs
Duration                                 : 1 h 18 min
Bit rate                                 : 366 b/s
Count of elements                        : 18
Stream size                              : 212 KiB (0%)
Language                                 : French
Default                                  : No
Forced                                   : No

Text #2
ID                                       : 4
Format                                   : PGS
Muxing mode                              : zlib
Codec ID                                 : S_HDMV/PGS
Codec ID/Info                            : Picture based subtitle format used on BDs/HD-DVDs
Duration                                 : 1 h 18 min
Bit rate                                 : 33.9 kb/s
Count of elements                        : 1747
Stream size                              : 19.1 MiB (0%)
Language                                 : French
Default                                  : No
Forced                                   : No

Menu
00:00:00.000                             : :Chapter 1
00:11:12.714                             : :Chapter 2
00:19:25.539                             : :Chapter 3
00:23:11.640                             : :Chapter 4
00:28:14.067                             : :Chapter 5
00:37:02.178                             : :Chapter 6
00:44:17.697                             : :Chapter 7
00:51:00.474                             : :Chapter 8
00:57:38.705                             : :Chapter 9
01:05:17.789                             : :Chapter 10
01:10:50.496                             : :Chapter 11
01:14:32.426                             : :Chapter 12

4b30b30e758deea809e21d2040b23828.jpg





                                                                                                                                                                                                        
                                                                                                                                                                                                                                                                                                                                                                                                                                                                                                                                                                                                                                                                                                                                                                                                                                                        
acd0b62d9d900e515a0dcdda1fa6a547.torrent (21.2 KB, 下载次数: 0)

回复

使用道具 举报

小黑屋|西西论坛

本网站所有资源来自网络,如无意中侵犯了您的权益,请发邮件至 [email protected],立即清除相关链接

GMT+8, 2021-12-3 16:03 , Processed in 0.115058 second(s), 17 queries .

Powered by Discuz! X3.2

© 2001-2013 Comsenz Inc.

快速回复 返回顶部 返回列表