西西论坛

 找回密码
 立即注册
搜索

爱人的最后一封情书/你爱人的最后来信 The.Last.Letter.from.Your.Lover.2021.720p.Bl ...

[复制链接]
admin 发表于 2021-11-16 09:35:14 | 显示全部楼层 |阅读模式
爱人的最后一封情书/你爱人的最后来信 The.Last.Letter.from.Your.Lover.2021.720p.BluRay.x264-SCARE 4                                                                                                                                                                                                                                                                                                                                                                                                                                                                                                                                        -->
帖子完整标题:爱人的最后一封情书/你爱人的最后来信 The.Last.Letter.from.Your.Lover.2021.720p.BluRay.x264-SCARE 4.06GB



b5f4360b55b24b55a5e3a6709484b59c.jpg



◎译  名 爱人的最后一封情书/你爱人的最后来信/恋人的最后情书/长恨书
◎片  名 Last Letter from Your Lover
◎年  代 2021
◎产  地 英国,法国
◎类  别 剧情 / 爱情
◎语  言 英语
◎上映日期 2021-03-11(德国) / 2021-03-12(英国) / 2021-07-23(美国网络)
◎豆瓣评分 6.6/10 from 1362 users
◎豆瓣链接 
◎片  长 110分钟
◎导  演 奥古斯丁·弗里泽尔 Augustine Frizzell
◎编  剧 乔乔·莫伊斯 Jojo Moyes / 尼克·佩恩 Nick Payne / Esta Spalding Esta Spalding
◎主  演 菲丽希缇·琼斯 Felicity Jones
       谢琳·伍德蕾 Shailene Woodley
       卡勒姆·特纳 Callum Turner
       乔·阿尔文 Joe Alwyn
       纳巴汉·里兹万 Nabhaan Rizwan
       本·克劳斯 Ben Cross
       克里斯蒂安·布拉辛顿 Christian Brassington
       舒提·盖特瓦 Ncuti Gatwa
       维尔赫尔姆·布洛姆根 Vilhelm Blomgren
       戴安娜·肯特 Diana Kent
       安·奥戈博莫 Ann Ogbomo
       马诺伊·阿南德 Manoj Anand
       乔基姆·斯卡利 Joakim Skarli
       迪亚戈·马丁斯 Tiago Martins
       Lee Knight Lee Knight
       格雷丝·万 Grace Wan
       艾玛·阿普尔顿 Emma Appleton

◎标  签 爱情 | 2021 | 加拿大 | 卡勒姆·特纳 | 谢琳·伍德蕾 | 欧美电影 | 改编 | 乔·阿尔文

◎简  介

  事业心很强的记者(菲丽希缇·琼斯 饰)发现一批不为人知的情书,继而查出一对恋人(谢琳·伍德蕾与卡勒姆·特纳 饰)在 1960 年代发展出的禁忌恋情。本片改编自《遇见你之前》原作者乔乔·莫伊斯气势恢弘的浪漫小说,请到乔·阿尔文和纳巴汉·里兹万参与演出。
  
  在 Netflix 观赏《恋人的最后情书》,7 月 23 日上线。
Video
ID                                       : 1
Format                                   : AVC
Format/Info                              : Advanced Video Codec
Format profile                           :
Format settings                          : CABAC / 12 Ref Frames
Format settings, CABAC                   : Yes
Format settings, Reference frames        : 12 frames
Codec ID                                 : V_MPEG4/ISO/AVC
Duration                                 : 1 h 49 min
Bit rate                                 : 4 668 kb/s
Width                                    : 1 280 pixels
Height                                   : 536 pixels
Display aspect ratio                     : 2.40:1
Frame rate mode                          : Constant
Frame rate                               : 24.000 FPS
Color space                              : YUV
Chroma subsampling                       : 4:2:0
Bit depth                                : 8 bits
Scan type                                : Progressive
Bits/(Pixel*Frame)                       : 0.283
Stream size                              : 3.56 GiB (88%)
Writing library                          : x264 core 164 r3065 ae03d92
Encoding settings                        : cabac=1 / ref=12 / deblock=1:-3:-3 / analyse=0x3:0x133 / me=umh / subme=10 / psy=1 / psy_rd=1.20:0.00 / mixed_ref=1 / me_range=24 / chroma_me=1 / trellis=2 / 8x8dct=1 / cqm=0 / deadzone=21,11 / fast_pskip=0 / chroma_qp_offset=-2 / threads=17 / lookahead_threads=2 / sliced_threads=0 / nr=0 / decimate=0 / interlaced=0 / bluray_compat=0 / constrained_intra=0 / bframes=8 / b_pyramid=2 / b_adapt=2 / b_bias=0 / direct=3 / weightb=1 / open_gop=0 / weightp=2 / keyint=250 / keyint_min=24 / scenecut=40 / intra_refresh=0 / rc_lookahead=60 / rc=crf / mbtree=1 / crf=15.0 / qcomp=0.60 / qpmin=0 / qpmax=69 / qpstep=4 / ip_ratio=1.40 / aq=3:0.90
Default                                  : Yes
Forced                                   : No
Color range                              : Limited
Matrix coefficients                      : BT.709

Audio
ID                                       : 2
Format                                   : AC-3
Format/Info                              : Audio Coding 3
Commercial name                          : Dolby Digital
Codec ID                                 : A_AC3
Duration                                 : 1 h 49 min
Bit rate mode                            : Constant
Bit rate                                 : 640 kb/s
Channel(s)                               : 6 channels
Channel layout                           : L R C LFE Ls Rs
Sampling rate                            : 48.0 kHz
Frame rate                               : 31.250 FPS (1536 SPF)
Compression mode                         : Lossy
Stream size                              : 500 MiB (12%)
Language                                 : English
Service kind                             : Complete Main
Default                                  : Yes
Forced                                   : No

Text #1
ID                                       : 3
Format                                   : UTF-8
Codec ID                                 : S_TEXT/UTF8
Codec ID/Info                            : UTF-8 Plain Text
Duration                                 : 7 s 333 ms
Bit rate                                 : 128 b/s
Count of elements                        : 3
Stream size                              : 118 Bytes (0%)
Title                                    : English (Forced)
Language                                 : English
Default                                  : Yes
Forced                                   : Yes

Text #2
ID                                       : 4
Format                                   : PGS
Muxing mode                              : zlib
Codec ID                                 : S_HDMV/PGS
Codec ID/Info                            : Picture based subtitle format used on BDs/HD-DVDs
Duration                                 : 1 h 45 min
Bit rate                                 : 38.2 kb/s
Count of elements                        : 3094
Stream size                              : 28.8 MiB (1%)
Title                                    : SDH
Language                                 : English
Default                                  : No
Forced                                   : No

Text #3
ID                                       : 5
Format                                   : PGS
Muxing mode                              : zlib
Codec ID                                 : S_HDMV/PGS
Codec ID/Info                            : Picture based subtitle format used on BDs/HD-DVDs
Duration                                 : 7 s 333 ms
Bit rate                                 : 78.4 kb/s
Count of elements                        : 6
Stream size                              : 70.1 KiB (0%)
Language                                 : English
Default                                  : No
Forced                                   : No

Menu
00:00:00.000                             : Chapter 01
00:05:04.208                             : Chapter 02
00:13:11.667                             : Chapter 03
00:24:25.083                             : Chapter 04
00:34:53.917                             : Chapter 05
00:42:37.792                             : Chapter 06
00:53:37.958                             : Chapter 07
01:02:52.833                             : Chapter 08
01:12:25.292                             : Chapter 09
01:24:19.458                             : Chapter 10
01:33:45.083                             : Chapter 11
01:40:46.375                             : Chapter 12

f109f29b42564a6d8c6f3217e4273101.jpg





                                                                                                                                                                                                        
                                                                                                                                                                                                                                                                                                                                                                                                                                                                                                                                                                                                                                                                                                                                                                                                                                                        
5e0d0e9656746971e4b598e44c7989a7.torrent (21.1 KB, 下载次数: 0)

回复

使用道具 举报

小黑屋|西西论坛

本网站所有资源来自网络,如无意中侵犯了您的权益,请发邮件至 [email protected],立即清除相关链接

GMT+8, 2021-12-3 15:55 , Processed in 0.118794 second(s), 17 queries .

Powered by Discuz! X3.2

© 2001-2013 Comsenz Inc.

快速回复 返回顶部 返回列表